  0
SECTION
  2
HEADER
  9
$ACADVER
  1
AC1027
  9
$ACADMAINTVER
 70
   105
  9
$DWGCODEPAGE
  3
ANSI_1252
  9
$REQUIREDVERSIONS
160
                 0
  9
$INSBASE
 10
0.0
 20
0.0
 30
0.0
  9
$EXTMIN
 10
1.000000000000000E+20
 20
1.000000000000000E+20
 30
1.000000000000000E+20
  9
$EXTMAX
 10
-1.000000000000000E+20
 20
-1.000000000000000E+20
 30
-1.000000000000000E+20
  9
$LIMMIN
 10
0.0
 20
0.0
  9
$LIMMAX
 10
420.0
 20
297.0
  9
$ORTHOMODE
 70
     0
  9
$REGENMODE
 70
     1
  9
$FILLMODE
 70
     1
  9
$QTEXTMODE
 70
     0
  9
$MIRRTEXT
 70
     1
  9
$LTSCALE
 40
1.0
  9
$ATTMODE
 70
     1
  9
$TEXTSIZE
 40
2.5
  9
$TRACEWID
 40
1.0
  9
$TEXTSTYLE
  7
Standard
  9
$CLAYER
  8
0
  9
$CELTYPE
  6
ByLayer
  9
$CECOLOR
 62
   256
  9
$CELTSCALE
 40
1.0
  9
$DISPSILH
 70
     0
  9
$DIMSCALE
 40
1.0
  9
$DIMASZ
 40
2.5
  9
$DIMEXO
 40
0.625
  9
$DIMDLI
 40
3.75
  9
$DIMRND
 40
0.0
  9
$DIMDLE
 40
0.0
  9
$DIMEXE
 40
1.25
  9
$DIMTP
 40
0.0
  9
$DIMTM
 40
0.0
  9
$DIMTXT
 40
2.5
  9
$DIMCEN
 40
2.5
  9
$DIMTSZ
 40
0.0
  9
$DIMTOL
 70
     0
  9
$DIMLIM
 70
     0
  9
$DIMTIH
 70
     0
  9
$DIMTOH
 70
     0
  9
$DIMSE1
 70
     0
  9
$DIMSE2
 70
     0
  9
$DIMTAD
 70
     1
  9
$DIMZIN
 70
     8
  9
$DIMBLK
  1

  9
$DIMASO
 70
     1
  9
$DIMSHO
 70
     1
  9
$DIMPOST
  1

  9
$DIMAPOST
  1

  9
$DIMALT
 70
     0
  9
$DIMALTD
 70
     3
  9
$DIMALTF
 40
0.03937007874016
  9
$DIMLFAC
 40
1.0
  9
$DIMTOFL
 70
     1
  9
$DIMTVP
 40
0.0
  9
$DIMTIX
 70
     0
  9
$DIMSOXD
 70
     0
  9
$DIMSAH
 70
     0
  9
$DIMBLK1
  1

  9
$DIMBLK2
  1

  9
$DIMSTYLE
  2
ISO-25
  9
$DIMCLRD
 70
     0
  9
$DIMCLRE
 70
     0
  9
$DIMCLRT
 70
     0
  9
$DIMTFAC
 40
1.0
  9
$DIMGAP
 40
0.625
  9
$DIMJUST
 70
     0
  9
$DIMSD1
 70
     0
  9
$DIMSD2
 70
     0
  9
$DIMTOLJ
 70
     0
  9
$DIMTZIN
 70
     8
  9
$DIMALTZ
 70
     0
  9
$DIMALTTZ
 70
     0
  9
$DIMUPT
 70
     0
  9
$DIMDEC
 70
     2
  9
$DIMTDEC
 70
     2
  9
$DIMALTU
 70
     2
  9
$DIMALTTD
 70
     3
  9
$DIMTXSTY
  7
Standard
  9
$DIMAUNIT
 70
     0
  9
$DIMADEC
 70
     0
  9
$DIMALTRND
 40
0.0
  9
$DIMAZIN
 70
     0
  9
$DIMDSEP
 70
    44
  9
$DIMATFIT
 70
     3
  9
$DIMFRAC
 70
     0
  9
$DIMLDRBLK
  1

  9
$DIMLUNIT
 70
     2
  9
$DIMLWD
 70
    -2
  9
$DIMLWE
 70
    -2
  9
$DIMTMOVE
 70
     0
  9
$DIMFXL
 40
1.0
  9
$DIMFXLON
 70
     0
  9
$DIMJOGANG
 40
0.7853981633974483
  9
$DIMTFILL
 70
     0
  9
$DIMTFILLCLR
 70
     0
  9
$DIMARCSYM
 70
     0
  9
$DIMLTYPE
  6

  9
$DIMLTEX1
  6

  9
$DIMLTEX2
  6

  9
$DIMTXTDIRECTION
 70
     0
  9
$LUNITS
 70
     2
  9
$LUPREC
 70
     4
  9
$SKETCHINC
 40
1.0
  9
$FILLETRAD
 40
10.0
  9
$AUNITS
 70
     0
  9
$AUPREC
 70
     0
  9
$MENU
  1
.
  9
$ELEVATION
 40
0.0
  9
$PELEVATION
 40
0.0
  9
$THICKNESS
 40
0.0
  9
$LIMCHECK
 70
     0
  9
$CHAMFERA
 40
0.0
  9
$CHAMFERB
 40
0.0
  9
$CHAMFERC
 40
0.0
  9
$CHAMFERD
 40
0.0
  9
$SKPOLY
 70
     0
  9
$TDCREATE
 40
2459684.346292338
  9
$TDUCREATE
 40
2459684.262959005
  9
$TDUPDATE
 40
2459684.346292361
  9
$TDUUPDATE
 40
2459684.262959028
  9
$TDINDWG
 40
0.0000000116
  9
$TDUSRTIMER
 40
0.0000000116
  9
$USRTIMER
 70
     1
  9
$ANGBASE
 50
0.0
  9
$ANGDIR
 70
     0
  9
$PDMODE
 70
     0
  9
$PDSIZE
 40
0.0
  9
$PLINEWID
 40
0.0
  9
$SPLFRAME
 70
     0
  9
$SPLINETYPE
 70
     6
  9
$SPLINESEGS
 70
     8
  9
$HANDSEED
  5
BF
  9
$SURFTAB1
 70
     6
  9
$SURFTAB2
 70
     6
  9
$SURFTYPE
 70
     6
  9
$SURFU
 70
     6
  9
$SURFV
 70
     6
  9
$UCSBASE
  2

  9
$UCSNAME
  2

  9
$UCSORG
 10
0.0
 20
0.0
 30
0.0
  9
$UCSXDIR
 10
1.0
 20
0.0
 30
0.0
  9
$UCSYDIR
 10
0.0
 20
1.0
 30
0.0
  9
$UCSORTHOREF
  2

  9
$UCSORTHOVIEW
 70
     0
  9
$UCSORGTOP
 10
0.0
 20
0.0
 30
0.0
  9
$UCSORGBOTTOM
 10
0.0
 20
0.0
 30
0.0
  9
$UCSORGLEFT
 10
0.0
 20
0.0
 30
0.0
  9
$UCSORGRIGHT
 10
0.0
 20
0.0
 30
0.0
  9
$UCSORGFRONT
 10
0.0
 20
0.0
 30
0.0
  9
$UCSORGBACK
 10
0.0
 20
0.0
 30
0.0
  9
$PUCSBASE
  2

  9
$PUCSNAME
  2

  9
$PUCSORG
 10
0.0
 20
0.0
 30
0.0
  9
$PUCSXDIR
 10
1.0
 20
0.0
 30
0.0
  9
$PUCSYDIR
 10
0.0
 20
1.0
 30
0.0
  9
$PUCSORTHOREF
  2

  9
$PUCSORTHOVIEW
 70
     0
  9
$PUCSORGTOP
 10
0.0
 20
0.0
 30
0.0
  9
$PUCSORGBOTTOM
 10
0.0
 20
0.0
 30
0.0
  9
$PUCSORGLEFT
 10
0.0
 20
0.0
 30
0.0
  9
$PUCSORGRIGHT
 10
0.0
 20
0.0
 30
0.0
  9
$PUCSORGFRONT
 10
0.0
 20
0.0
 30
0.0
  9
$PUCSORGBACK
 10
0.0
 20
0.0
 30
0.0
  9
$USERI1
 70
     0
  9
$USERI2
 70
     0
  9
$USERI3
 70
     0
  9
$USERI4
 70
     0
  9
$USERI5
 70
     0
  9
$USERR1
 40
0.0
  9
$USERR2
 40
0.0
  9
$USERR3
 40
0.0
  9
$USERR4
 40
0.0
  9
$USERR5
 40
0.0
  9
$WORLDVIEW
 70
     1
  9
$SHADEDGE
 70
     3
  9
$SHADEDIF
 70
    70
  9
$TILEMODE
 70
     1
  9
$MAXACTVP
 70
    64
  9
$PINSBASE
 10
0.0
 20
0.0
 30
0.0
  9
$PLIMCHECK
 70
     0
  9
$PEXTMIN
 10
1.000000000000000E+20
 20
1.000000000000000E+20
 30
1.000000000000000E+20
  9
$PEXTMAX
 10
-1.000000000000000E+20
 20
-1.000000000000000E+20
 30
-1.000000000000000E+20
  9
$PLIMMIN
 10
0.0
 20
0.0
  9
$PLIMMAX
 10
420.0
 20
297.0
  9
$UNITMODE
 70
     0
  9
$VISRETAIN
 70
     1
  9
$PLINEGEN
 70
     0
  9
$PSLTSCALE
 70
     1
  9
$TREEDEPTH
 70
  3020
  9
$CMLSTYLE
  2
Standard
  9
$CMLJUST
 70
     0
  9
$CMLSCALE
 40
20.0
  9
$PROXYGRAPHICS
 70
     1
  9
$MEASUREMENT
 70
     1
  9
$CELWEIGHT
370
    -1
  9
$ENDCAPS
280
     0
  9
$JOINSTYLE
280
     0
  9
$LWDISPLAY
290
     0
  9
$INSUNITS
 70
     4
  9
$HYPERLINKBASE
  1

  9
$STYLESHEET
  1

  9
$XEDIT
290
     1
  9
$CEPSNTYPE
380
     0
  9
$PSTYLEMODE
290
     1
  9
$FINGERPRINTGUID
  2
{35c03177-af67-4bb4-b819-e006d0321491}
  9
$VERSIONGUID
  2
{FAEB1C32-E019-11D5-929B-00C0DF256EC4}
  9
$EXTNAMES
290
     1
  9
$PSVPSCALE
 40
0.0
  9
$OLESTARTUP
290
     0
  9
$SORTENTS
280
   127
  9
$INDEXCTL
280
     0
  9
$HIDETEXT
280
     1
  9
$XCLIPFRAME
280
     2
  9
$HALOGAP
280
     0
  9
$OBSCOLOR
 70
   257
  9
$OBSLTYPE
280
     0
  9
$INTERSECTIONDISPLAY
280
     0
  9
$INTERSECTIONCOLOR
 70
   257
  9
$DIMASSOC
280
     2
  9
$PROJECTNAME
  1

  9
$CAMERADISPLAY
290
     0
  9
$LENSLENGTH
 40
50.0
  9
$CAMERAHEIGHT
 40
0.0
  9
$STEPSPERSEC
 40
2.0
  9
$STEPSIZE
 40
6.0
  9
$3DDWFPREC
 40
2.0
  9
$PSOLWIDTH
 40
5.0
  9
$PSOLHEIGHT
 40
80.0
  9
$LOFTANG1
 40
1.570796326794897
  9
$LOFTANG2
 40
1.570796326794897
  9
$LOFTMAG1
 40
0.0
  9
$LOFTMAG2
 40
0.0
  9
$LOFTPARAM
 70
     7
  9
$LOFTNORMALS
280
     1
  9
$LATITUDE
 40
37.795
  9
$LONGITUDE
 40
-122.394
  9
$NORTHDIRECTION
 40
0.0
  9
$TIMEZONE
 70
 -8000
  9
$LIGHTGLYPHDISPLAY
280
     1
  9
$TILEMODELIGHTSYNCH
280
     1
  9
$CMATERIAL
347
44
  9
$SOLIDHIST
280
     0
  9
$SHOWHIST
280
     1
  9
$DWFFRAME
280
     2
  9
$DGNFRAME
280
     2
  9
$REALWORLDSCALE
290
     1
  9
$INTERFERECOLOR
 62
   256
  9
$CSHADOW
280
     0
  9
$SHADOWPLANELOCATION
 40
0.0
  0
ENDSEC
  0
SECTION
  2
CLASSES
  0
CLASS
  1
ACDBDICTIONARYWDFLT
  2
AcDbDictionaryWithDefault
  3
ObjectDBX Classes
 90
        0
 91
        3
280
     0
281
     0
  0
CLASS
  1
VISUALSTYLE
  2
AcDbVisualStyle
  3
ObjectDBX Classes
 90
     4095
 91
        3
280
     0
281
     0
  0
CLASS
  1
MATERIAL
  2
AcDbMaterial
  3
ObjectDBX Classes
 90
     1153
 91
        3
280
     0
281
     0
  0
CLASS
  1
SCALE
  2
AcDbScale
  3
ObjectDBX Classes
 90
     1153
 91
        3
280
     0
281
     0
  0
CLASS
  1
TABLESTYLE
  2
AcDbTableStyle
  3
ObjectDBX Classes
 90
     4095
 91
        3
280
     0
281
     0
  0
CLASS
  1
MLEADERSTYLE
  2
AcDbMLeaderStyle
  3
ACDB_MLEADERSTYLE_CLASS
 90
     4095
 91
        3
280
     0
281
     0
  0
CLASS
  1
SUN
  2
AcDbSun
  3
SCENEOE
 90
     1153
 91
        3
280
     0
281
     0
  0
CLASS
  1
DICTIONARYVAR
  2
AcDbDictionaryVar
  3
ObjectDBX Classes
 90
        0
 91
        3
280
     0
281
     0
  0
CLASS
  1
CELLSTYLEMAP
  2
AcDbCellStyleMap
  3
ObjectDBX Classes
 90
     1152
 91
        3
280
     0
281
     0
  0
ENDSEC
  0
SECTION
  2
TABLES
  0
TABLE
  2
VPORT
  5
8
330
0
100
AcDbSymbolTable
 70
     1
  0
VPORT
  5
29
330
8
100
AcDbSymbolTableRecord
100
AcDbViewportTableRecord
  2
*Active
 70
     0
 10
0.0
 20
0.0
 11
1.0
 21
1.0
 12
0.0
 22
0.0
 13
0.0
 23
0.0
 14
10.0
 24
10.0
 15
10.0
 25
10.0
 16
0.0
 26
0.0
 36
1.0
 17
870.8033175309167
 27
801.5803937062035
 37
0.0
 40
22.21882678302782
 41
14.91469239357228
 42
50.0
 43
0.0
 44
0.0
 50
0.0
 51
0.0
 71
     0
 72
   100
 73
     1
 74
     3
 75
     0
 76
     0
 77
     0
 78
     0
281
     0
 65
     1
110
0.0
120
0.0
130
0.0
111
1.0
121
0.0
131
0.0
112
0.0
122
1.0
132
0.0
 79
     0
146
0.0
348
2F
 60
     3
 61
     5
292
     1
282
     1
141
0.0
142
0.0
 63
   250
361
6D
  0
ENDTAB
  0
TABLE
  2
LTYPE
  5
5
330
0
100
AcDbSymbolTable
 70
     4
  0
LTYPE
  5
14
330
5
100
AcDbSymbolTableRecord
100
AcDbLinetypeTableRecord
  2
ByBlock
 70
     0
  3

 72
    65
 73
     0
 40
0.0
  0
LTYPE
  5
15
330
5
100
AcDbSymbolTableRecord
100
AcDbLinetypeTableRecord
  2
ByLayer
 70
     0
  3

 72
    65
 73
     0
 40
0.0
  0
LTYPE
  5
16
330
5
100
AcDbSymbolTableRecord
100
AcDbLinetypeTableRecord
  2
Continuous
 70
     0
  3
Solid line
 72
    65
 73
     0
 40
0.0
  0
LTYPE
  5
6E
330
5
100
AcDbSymbolTableRecord
100
AcDbLinetypeTableRecord
  2
Gestrichelt
 70
     0
  3

 72
    83
 73
     3
 40
10.0
 49
2.5
 74
     0
 49
-5.0
 74
     0
 49
2.5
 74
     0
  0
LTYPE
  5
6F
330
5
100
AcDbSymbolTableRecord
100
AcDbLinetypeTableRecord
  2
PHL_THICK
 70
     0
  3

 72
    83
 73
     0
 40
0.0
  0
LTYPE
  5
70
330
5
100
AcDbSymbolTableRecord
100
AcDbLinetypeTableRecord
  2
StrichPunkt
 70
     0
  3

 72
    83
 73
     5
 40
15.0
 49
5.0
 74
     0
 49
-2.5
 74
     0
 49
0.0
 74
     0
 49
-2.5
 74
     0
 49
5.0
 74
     0
  0
ENDTAB
  0
TABLE
  2
LAYER
  5
2
330
0
100
AcDbSymbolTable
 70
     6
  0
LAYER
  5
10
330
2
100
AcDbSymbolTableRecord
100
AcDbLayerTableRecord
  2
0
 70
     0
 62
     7
  6
Continuous
370
    -3
390
F
347
46
348
0
  0
LAYER
  5
72
330
2
100
AcDbSymbolTableRecord
100
AcDbLayerTableRecord
  2
FEIN
 70
     0
 62
     7
  6
Continuous
370
    -3
390
F
347
46
348
0
  0
LAYER
  5
73
330
2
100
AcDbSymbolTableRecord
100
AcDbLayerTableRecord
  2
Maße
 70
     0
 62
     7
  6
Continuous
370
    -3
390
F
347
46
348
0
  0
LAYER
  5
74
330
2
100
AcDbSymbolTableRecord
100
AcDbLayerTableRecord
  2
Hilfslinie
 70
     0
 62
     1
420
 16711680
  6
Continuous
370
    -3
390
F
347
46
348
0
  0
LAYER
  5
75
330
2
100
AcDbSymbolTableRecord
100
AcDbLayerTableRecord
  2
Schrift
 70
     0
 62
     7
  6
Continuous
370
    -3
390
F
347
46
348
0
  0
LAYER
  5
7B
330
2
100
AcDbSymbolTableRecord
100
AcDbLayerTableRecord
  2
Defpoints
 70
     0
 62
     7
  6
Continuous
290
     0
370
    -3
390
F
347
46
348
0
  0
ENDTAB
  0
TABLE
  2
STYLE
  5
3
330
0
100
AcDbSymbolTable
 70
     3
  0
STYLE
  5
11
330
3
100
AcDbSymbolTableRecord
100
AcDbTextStyleTableRecord
  2
Standard
 70
     0
 40
10.0
 41
1.0
 50
0.0
 71
     0
 42
2.5
  3
Simplex
  4

  0
STYLE
  5
71
330
3
100
AcDbSymbolTableRecord
100
AcDbTextStyleTableRecord
  2
Standard_Dim
 70
     0
 40
0.0
 41
1.0
 50
0.0
 71
     0
 42
2.5
  3
Simplex
  4

  0
STYLE
  5
76
330
3
100
AcDbSymbolTableRecord
100
AcDbTextStyleTableRecord
  2
Standard_Dim1
 70
     0
 40
0.0
 41
1.0
 50
0.0
 71
     0
 42
2.5
  3
Simplex
  4

  0
ENDTAB
  0
TABLE
  2
VIEW
  5
6
330
0
100
AcDbSymbolTable
 70
     0
  0
ENDTAB
  0
TABLE
  2
UCS
  5
7
330
0
100
AcDbSymbolTable
 70
     0
  0
ENDTAB
  0
TABLE
  2
APPID
  5
9
330
0
100
AcDbSymbolTable
 70
     1
  0
APPID
  5
12
330
9
100
AcDbSymbolTableRecord
100
AcDbRegAppTableRecord
  2
ACAD
 70
     0
  0
ENDTAB
  0
TABLE
  2
DIMSTYLE
  5
A
330
0
100
AcDbSymbolTable
 70
     4
100
AcDbDimStyleTable
  0
DIMSTYLE
105
27
330
A
100
AcDbSymbolTableRecord
100
AcDbDimStyleTableRecord
  2
ISO-25
 70
     0
 41
2.5
 42
0.625
 43
3.75
 44
1.25
 73
     0
 74
     0
 77
     1
 78
     8
140
2.5
141
2.5
143
0.03937007874016
147
0.625
171
     3
172
     1
178
     0
271
     2
272
     2
274
     3
278
    44
283
     0
284
     8
340
11
  0
DIMSTYLE
105
77
102
{ACAD_REACTORS
330
7A
330
89
102
}
330
A
100
AcDbSymbolTableRecord
100
AcDbDimStyleTableRecord
  2
Standard
 70
     0
 41
2.0
 42
3.0
 44
0.0
 73
     0
 74
     0
 78
    12
140
3.0
147
0.45
176
     7
177
     7
271
     2
178
     7
179
     2
271
     2
272
     2
340
76
  0
DIMSTYLE
105
78
330
A
100
AcDbSymbolTableRecord
100
AcDbDimStyleTableRecord
  2
GROß
 70
     0
 41
8.0
 42
3.0
 44
0.0
 73
     0
 74
     0
 78
    12
140
6.0
147
0.8999999999999999
176
     7
177
     7
271
     1
178
     7
179
     2
271
     1
272
     1
274
     1
340
71
  0
DIMSTYLE
105
79
330
A
100
AcDbSymbolTableRecord
100
AcDbDimStyleTableRecord
  2
klein
 70
     0
 41
2.0
 42
3.0
 44
0.0
 73
     0
 74
     0
 77
     2
 78
    12
140
3.0
147
0.45
176
     7
177
     7
271
     2
178
     7
179
     2
271
     2
272
     2
340
76
  0
ENDTAB
  0
TABLE
  2
BLOCK_RECORD
  5
1
330
0
100
AcDbSymbolTable
 70
     7
  0
BLOCK_RECORD
  5
1F
330
1
100
AcDbSymbolTableRecord
100
AcDbBlockTableRecord
  2
*Model_Space
340
22
 70
     0
280
     1
281
     0
  0
BLOCK_RECORD
  5
1B
330
1
100
AcDbSymbolTableRecord
100
AcDbBlockTableRecord
  2
*Paper_Space
340
1E
 70
     0
280
     1
281
     0
  0
BLOCK_RECORD
  5
23
330
1
100
AcDbSymbolTableRecord
100
AcDbBlockTableRecord
  2
*Paper_Space0
340
26
 70
     0
280
     1
281
     0
  0
BLOCK_RECORD
  5
7C
330
1
100
AcDbSymbolTableRecord
100
AcDbBlockTableRecord
  2
*D1
340
0
 70
     0
280
     1
281
     0
  0
BLOCK_RECORD
  5
8A
330
1
100
AcDbSymbolTableRecord
100
AcDbBlockTableRecord
  2
*D2
340
0
 70
     0
280
     1
281
     0
  0
BLOCK_RECORD
  5
97
330
1
100
AcDbSymbolTableRecord
100
AcDbBlockTableRecord
  2
*U3
340
0
102
{BLKREFS
331
B2
102
}
 70
     0
280
     1
281
     0
  0
BLOCK_RECORD
  5
98
330
1
100
AcDbSymbolTableRecord
100
AcDbBlockTableRecord
  2
*U4
340
0
102
{BLKREFS
331
9D
102
}
 70
     0
280
     1
281
     0
  0
BLOCK_RECORD
  5
9E
330
1
100
AcDbSymbolTableRecord
100
AcDbBlockTableRecord
  2
*U5
340
0
102
{BLKREFS
331
A3
102
}
 70
     0
280
     1
281
     0
  0
BLOCK_RECORD
  5
A4
330
1
100
AcDbSymbolTableRecord
100
AcDbBlockTableRecord
  2
*U6
340
0
102
{BLKREFS
331
A9
102
}
 70
     0
280
     1
281
     0
  0
ENDTAB
  0
ENDSEC
  0
SECTION
  2
BLOCKS
  0
BLOCK
  5
20
330
1F
100
AcDbEntity
  8
0
100
AcDbBlockBegin
  2
*Model_Space
 70
     0
 10
0.0
 20
0.0
 30
0.0
  3
*Model_Space
  1

  0
ENDBLK
  5
21
330
1F
100
AcDbEntity
  8
0
100
AcDbBlockEnd
  0
BLOCK
  5
1C
330
1B
100
AcDbEntity
 67
     1
  8
0
100
AcDbBlockBegin
  2
*Paper_Space
 70
     0
 10
0.0
 20
0.0
 30
0.0
  3
*Paper_Space
  1

  0
ENDBLK
  5
1D
330
1B
100
AcDbEntity
 67
     1
  8
0
100
AcDbBlockEnd
  0
BLOCK
  5
24
330
23
100
AcDbEntity
  8
0
100
AcDbBlockBegin
  2
*Paper_Space0
 70
     0
 10
0.0
 20
0.0
 30
0.0
  3
*Paper_Space0
  1

  0
ENDBLK
  5
25
330
23
100
AcDbEntity
  8
0
100
AcDbBlockEnd
  0
BLOCK
  5
7D
330
7C
100
AcDbEntity
  8
0
100
AcDbBlockBegin
  2
*D1
 70
     1
 10
0.0
 20
0.0
 30
0.0
  3
*D1
  1

  0
LINE
  5
7F
330
7C
100
AcDbEntity
  8
Maße
 62
     7
370
    -2
100
AcDbLine
 10
1022.606635061833
 20
799.9999999999995
 30
0.0
 11
1026.606635061833
 21
799.9999999999995
 31
0.0
  0
LINE
  5
80
330
7C
100
AcDbEntity
  8
Maße
 62
     7
370
    -2
100
AcDbLine
 10
1022.606635061833
 20
811.9999999999995
 30
0.0
 11
1026.606635061833
 21
811.9999999999995
 31
0.0
  0
LINE
  5
81
330
7C
100
AcDbEntity
  8
Maße
 62
     7
370
    -2
100
AcDbLine
 10
1026.606635061833
 20
801.9999999999995
 30
0.0
 11
1026.606635061833
 21
803.3357142857137
 31
0.0
  0
LINE
  5
82
330
7C
100
AcDbEntity
  8
Maße
 62
     7
370
    -2
100
AcDbLine
 10
1026.606635061833
 20
809.9999999999995
 30
0.0
 11
1026.606635061833
 21
808.6642857142854
 31
0.0
  0
SOLID
  5
83
330
7C
100
AcDbEntity
  8
Maße
 62
     7
100
AcDbTrace
 10
1026.2733017285
 20
801.9999999999995
 30
0.0
 11
1026.939968395167
 21
801.9999999999995
 31
0.0
 12
1026.606635061833
 22
799.9999999999995
 32
0.0
 13
1026.606635061833
 23
799.9999999999995
 33
0.0
  0
SOLID
  5
84
330
7C
100
AcDbEntity
  8
Maße
 62
     7
100
AcDbTrace
 10
1026.939968395167
 20
809.9999999999995
 30
0.0
 11
1026.2733017285
 21
809.9999999999995
 31
0.0
 12
1026.606635061833
 22
811.9999999999995
 32
0.0
 13
1026.606635061833
 23
811.9999999999995
 33
0.0
  0
MTEXT
  5
85
330
7C
100
AcDbEntity
  8
Maße
 62
     7
100
AcDbMText
 10
1026.606635061833
 20
805.9999999999995
 30
0.0
 40
3.0
 41
0.0
 46
0.0
 71
     5
 72
     1
  1
\A1;12
  7
Standard_Dim1
 11
0.0
 21
1.0
 31
0.0
 73
     1
 44
1.0
  0
POINT
  5
86
330
7C
100
AcDbEntity
  8
Defpoints
 62
     0
100
AcDbPoint
 10
1019.606635061833
 20
799.9999999999995
 30
0.0
  0
POINT
  5
87
330
7C
100
AcDbEntity
  8
Defpoints
 62
     0
100
AcDbPoint
 10
1019.606635061833
 20
811.9999999999995
 30
0.0
  0
POINT
  5
88
330
7C
100
AcDbEntity
  8
Defpoints
 62
     0
100
AcDbPoint
 10
1026.606635061833
 20
811.9999999999995
 30
0.0
  0
ENDBLK
  5
7E
330
7C
100
AcDbEntity
  8
0
100
AcDbBlockEnd
  0
BLOCK
  5
8B
330
8A
100
AcDbEntity
  8
0
100
AcDbBlockBegin
  2
*D2
 70
     1
 10
0.0
 20
0.0
 30
0.0
  3
*D2
  1

  0
LINE
  5
8D
330
8A
100
AcDbEntity
  8
Maße
 62
     7
370
    -2
100
AcDbLine
 10
887.6066350618337
 20
796.9999999999995
 30
0.0
 11
887.6066350618337
 21
792.9999999999998
 31
0.0
  0
LINE
  5
8E
330
8A
100
AcDbEntity
  8
Maße
 62
     7
370
    -2
100
AcDbLine
 10
1019.606635061833
 20
796.9999999999995
 30
0.0
 11
1019.606635061833
 21
792.9999999999998
 31
0.0
  0
LINE
  5
8F
330
8A
100
AcDbEntity
  8
Maße
 62
     7
370
    -2
100
AcDbLine
 10
889.6066350618337
 20
792.9999999999998
 30
0.0
 11
949.5137779189765
 21
792.9999999999998
 31
0.0
  0
LINE
  5
90
330
8A
100
AcDbEntity
  8
Maße
 62
     7
370
    -2
100
AcDbLine
 10
1017.606635061833
 20
792.9999999999998
 30
0.0
 11
957.6994922046908
 21
792.9999999999998
 31
0.0
  0
SOLID
  5
91
330
8A
100
AcDbEntity
  8
Maße
 62
     7
100
AcDbTrace
 10
889.6066350618337
 20
793.3333333333331
 30
0.0
 11
889.6066350618337
 21
792.6666666666664
 31
0.0
 12
887.6066350618337
 22
792.9999999999998
 32
0.0
 13
887.6066350618337
 23
792.9999999999998
 33
0.0
  0
SOLID
  5
92
330
8A
100
AcDbEntity
  8
Maße
 62
     7
100
AcDbTrace
 10
1017.606635061833
 20
792.6666666666664
 30
0.0
 11
1017.606635061833
 21
793.3333333333331
 31
0.0
 12
1019.606635061833
 22
792.9999999999998
 32
0.0
 13
1019.606635061833
 23
792.9999999999998
 33
0.0
  0
MTEXT
  5
93
330
8A
100
AcDbEntity
  8
Maße
 62
     7
100
AcDbMText
 10
953.6066350618337
 20
792.9999999999998
 30
0.0
 40
3.0
 41
0.0
 46
0.0
 71
     5
 72
     1
  1
\A1;132
  7
Standard_Dim1
 73
     1
 44
1.0
  0
POINT
  5
94
330
8A
100
AcDbEntity
  8
Defpoints
 62
     0
100
AcDbPoint
 10
887.6066350618337
 20
799.9999999999995
 30
0.0
  0
POINT
  5
95
330
8A
100
AcDbEntity
  8
Defpoints
 62
     0
100
AcDbPoint
 10
1019.606635061833
 20
799.9999999999995
 30
0.0
  0
POINT
  5
96
330
8A
100
AcDbEntity
  8
Defpoints
 62
     0
100
AcDbPoint
 10
1019.606635061833
 20
792.9999999999998
 30
0.0
  0
ENDBLK
  5
8C
330
8A
100
AcDbEntity
  8
0
100
AcDbBlockEnd
  0
BLOCK
  5
B0
330
97
100
AcDbEntity
  8
0
100
AcDbBlockBegin
  2
*U3
 70
     1
 10
0.0
 20
0.0
 30
0.0
  3
*U3
  1

  0
INSERT
  5
9D
330
97
100
AcDbEntity
  8
FEIN
100
AcDbBlockReference
  2
*U4
 10
1047.197898831418
 20
-1650.03534834374
 30
0.0
  0
INSERT
  5
A3
330
97
100
AcDbEntity
  8
FEIN
100
AcDbBlockReference
  2
*U5
 10
1091.197898831418
 20
-1650.03534834374
 30
0.0
  0
INSERT
  5
A9
330
97
100
AcDbEntity
  8
FEIN
100
AcDbBlockReference
  2
*U6
 10
1135.197898831417
 20
-1650.03534834374
 30
0.0
  0
HATCH
  5
AA
330
97
100
AcDbEntity
  8
FEIN
  6
Continuous
 62
   254
420
 13421772
100
AcDbHatch
 10
0.0
 20
0.0
 30
0.0
210
0.0
220
0.0
230
1.0
  2
SOLID
 70
     1
 71
     0
 91
        1
 92
       18
 72
     1
 73
     1
 93
       80
 10
1071.397898831418
 20
-1649.63534834374
 42
-0.414213562373095
 10
1071.697898831418
 20
-1649.93534834374
 42
0.0
 10
1071.697898831418
 20
-1652.73534834374
 42
-0.414213562373095
 10
1071.397898831418
 20
-1653.03534834374
 42
0.0
 10
1066.997898831418
 20
-1653.03534834374
 42
-0.414213562373095
 10
1066.697898831418
 20
-1652.73534834374
 42
0.0
 10
1066.697898831418
 20
-1649.93534834374
 42
-0.414213562373095
 10
1066.997898831418
 20
-1649.63534834374
 42
0.0
 10
1067.197898831418
 20
-1649.63534834374
 42
0.414213562373095
 10
1067.697898831418
 20
-1649.13534834374
 42
0.0
 10
1067.697898831418
 20
-1649.03534834374
 42
0.3201025237009659
 10
1067.360682908647
 20
-1648.56258905594
 42
0.0
 10
1065.829464697121
 20
-1648.03534834374
 42
0.0
 10
1060.197898831418
 20
-1648.03534834374
 42
0.0
 10
1059.197898831418
 20
-1649.03534834374
 42
0.0
 10
1059.197898831418
 20
-1649.73534834374
 42
0.4142135623728906
 10
1059.497898831418
 20
-1650.03534834374
 42
0.0
 10
1064.597898831418
 20
-1650.03534834374
 42
0.0
 10
1064.951107720042
 20
-1650.456286305693
 42
-0.1763269807084512
 10
1064.997898831418
 20
-1650.584843827631
 42
-0.414213562373095
 10
1064.797898831418
 20
-1650.784843827631
 42
0.6370702608074827
 10
1064.644689942794
 20
-1651.113401349568
 42
0.0
 10
1064.951107720042
 20
-1651.478575836438
 42
-0.1763269807084512
 10
1064.997898831418
 20
-1651.607133358375
 42
-0.414213562373095
 10
1064.797898831418
 20
-1651.807133358375
 42
0.6370702608074827
 10
1064.644689942794
 20
-1652.135690880312
 42
0.0
 10
1064.951107720042
 20
-1652.500865367182
 42
-0.1763269807084512
 10
1064.997898831418
 20
-1652.629422889119
 42
-0.414213562373095
 10
1064.797898831418
 20
-1652.829422889119
 42
0.6370702608074827
 10
1064.644689942794
 20
-1653.157980411056
 42
0.0
 10
1064.951107720042
 20
-1653.523154897926
 42
-0.1763269807084652
 10
1064.997898831418
 20
-1653.651712419863
 42
-0.414213562373095
 10
1064.797898831418
 20
-1653.851712419863
 42
0.6370702608076355
 10
1064.644689942794
 20
-1654.1802699418
 42
0.0
 10
1064.951107720042
 20
-1654.54544442867
 42
-0.1763269807084512
 10
1064.997898831418
 20
-1654.674001950607
 42
-0.414213562373095
 10
1064.797898831418
 20
-1654.874001950607
 42
0.5401597620289197
 10
1064.614493124709
 20
-1655.153766270617
 42
0.0
 10
1064.997898831418
 20
-1656.03534834374
 42
0.0
 10
1066.397898831418
 20
-1656.03534834374
 42
0.414213562373095
 10
1066.697898831418
 20
-1655.73534834374
 42
0.0
 10
1066.697898831418
 20
-1654.63534834374
 42
-0.414213562373095
 10
1066.997898831418
 20
-1654.33534834374
 42
0.0
 10
1068.897898831418
 20
-1654.33534834374
 42
0.9999999999999999
 10
1069.497898831418
 20
-1654.33534834374
 42
0.0
 10
1071.397898831418
 20
-1654.33534834374
 42
-0.414213562373095
 10
1071.697898831418
 20
-1654.63534834374
 42
0.0
 10
1071.697898831418
 20
-1655.73534834374
 42
0.414213562373095
 10
1071.997898831418
 20
-1656.03534834374
 42
0.0
 10
1073.397898831418
 20
-1656.03534834374
 42
0.0
 10
1073.781304538127
 20
-1655.153766270617
 42
0.5401597620289208
 10
1073.597898831418
 20
-1654.874001950607
 42
-0.414213562373095
 10
1073.397898831418
 20
-1654.674001950607
 42
-0.1763269807084497
 10
1073.444689942794
 20
-1654.54544442867
 42
0.0
 10
1073.751107720042
 20
-1654.180269941801
 42
0.6370702608076355
 10
1073.597898831418
 20
-1653.851712419863
 42
-0.414213562373095
 10
1073.397898831418
 20
-1653.651712419863
 42
-0.1763269807084635
 10
1073.444689942794
 20
-1653.523154897926
 42
0.0
 10
1073.751107720042
 20
-1653.157980411056
 42
0.637070260807482
 10
1073.597898831418
 20
-1652.829422889119
 42
-0.414213562373095
 10
1073.397898831418
 20
-1652.629422889119
 42
-0.1763269807084497
 10
1073.444689942794
 20
-1652.500865367182
 42
0.0
 10
1073.751107720042
 20
-1652.135690880312
 42
0.637070260807482
 10
1073.597898831418
 20
-1651.807133358375
 42
-0.414213562373095
 10
1073.397898831418
 20
-1651.607133358375
 42
-0.1763269807084497
 10
1073.444689942794
 20
-1651.478575836438
 42
0.0
 10
1073.751107720042
 20
-1651.113401349568
 42
0.637070260807482
 10
1073.597898831418
 20
-1650.784843827631
 42
-0.414213562373095
 10
1073.397898831418
 20
-1650.584843827631
 42
-0.1763269807084497
 10
1073.444689942794
 20
-1650.456286305693
 42
0.0
 10
1073.797898831418
 20
-1650.03534834374
 42
0.0
 10
1078.897898831418
 20
-1650.03534834374
 42
0.4142135623729353
 10
1079.197898831418
 20
-1649.73534834374
 42
0.0
 10
1079.197898831418
 20
-1649.03534834374
 42
0.0
 10
1078.197898831418
 20
-1648.03534834374
 42
0.0
 10
1072.566332965715
 20
-1648.03534834374
 42
0.0
 10
1071.035114754189
 20
-1648.56258905594
 42
0.3201025237009603
 10
1070.697898831418
 20
-1649.03534834374
 42
0.0
 10
1070.697898831418
 20
-1649.13534834374
 42
0.414213562373095
 10
1071.197898831418
 20
-1649.63534834374
 42
0.0
 97
        0
 75
     0
 76
     1
 98
        0
  0
LWPOLYLINE
  5
AB
330
97
100
AcDbEntity
  8
FEIN
  6
Continuous
100
AcDbPolyline
 90
       80
 70
     1
 43
0.0
 10
1071.397898831418
 20
-1649.63534834374
 42
-0.414213562373095
 10
1071.697898831418
 20
-1649.93534834374
 10
1071.697898831418
 20
-1652.73534834374
 42
-0.414213562373095
 10
1071.397898831418
 20
-1653.03534834374
 10
1066.997898831418
 20
-1653.03534834374
 42
-0.414213562373095
 10
1066.697898831418
 20
-1652.73534834374
 10
1066.697898831418
 20
-1649.93534834374
 42
-0.414213562373095
 10
1066.997898831418
 20
-1649.63534834374
 10
1067.197898831418
 20
-1649.63534834374
 42
0.414213562373095
 10
1067.697898831418
 20
-1649.13534834374
 10
1067.697898831418
 20
-1649.03534834374
 42
0.3201025237009659
 10
1067.360682908647
 20
-1648.56258905594
 10
1065.829464697121
 20
-1648.03534834374
 10
1060.197898831418
 20
-1648.03534834374
 10
1059.197898831418
 20
-1649.03534834374
 10
1059.197898831418
 20
-1649.73534834374
 42
0.4142135623728906
 10
1059.497898831418
 20
-1650.03534834374
 10
1064.597898831418
 20
-1650.03534834374
 10
1064.951107720042
 20
-1650.456286305693
 42
-0.1763269807084512
 10
1064.997898831418
 20
-1650.584843827631
 42
-0.414213562373095
 10
1064.797898831418
 20
-1650.784843827631
 42
0.6370702608074827
 10
1064.644689942794
 20
-1651.113401349568
 10
1064.951107720042
 20
-1651.478575836438
 42
-0.1763269807084512
 10
1064.997898831418
 20
-1651.607133358375
 42
-0.414213562373095
 10
1064.797898831418
 20
-1651.807133358375
 42
0.6370702608074827
 10
1064.644689942794
 20
-1652.135690880312
 10
1064.951107720042
 20
-1652.500865367182
 42
-0.1763269807084512
 10
1064.997898831418
 20
-1652.629422889119
 42
-0.414213562373095
 10
1064.797898831418
 20
-1652.829422889119
 42
0.6370702608074827
 10
1064.644689942794
 20
-1653.157980411056
 10
1064.951107720042
 20
-1653.523154897926
 42
-0.1763269807084652
 10
1064.997898831418
 20
-1653.651712419863
 42
-0.414213562373095
 10
1064.797898831418
 20
-1653.851712419863
 42
0.6370702608076355
 10
1064.644689942794
 20
-1654.1802699418
 10
1064.951107720042
 20
-1654.54544442867
 42
-0.1763269807084512
 10
1064.997898831418
 20
-1654.674001950607
 42
-0.414213562373095
 10
1064.797898831418
 20
-1654.874001950607
 42
0.5401597620289197
 10
1064.614493124709
 20
-1655.153766270617
 10
1064.997898831418
 20
-1656.03534834374
 10
1066.397898831418
 20
-1656.03534834374
 42
0.414213562373095
 10
1066.697898831418
 20
-1655.73534834374
 10
1066.697898831418
 20
-1654.63534834374
 42
-0.414213562373095
 10
1066.997898831418
 20
-1654.33534834374
 10
1068.897898831418
 20
-1654.33534834374
 42
0.9999999999999999
 10
1069.497898831418
 20
-1654.33534834374
 10
1071.397898831418
 20
-1654.33534834374
 42
-0.414213562373095
 10
1071.697898831418
 20
-1654.63534834374
 10
1071.697898831418
 20
-1655.73534834374
 42
0.414213562373095
 10
1071.997898831418
 20
-1656.03534834374
 10
1073.397898831418
 20
-1656.03534834374
 10
1073.781304538127
 20
-1655.153766270617
 42
0.5401597620289208
 10
1073.597898831418
 20
-1654.874001950607
 42
-0.414213562373095
 10
1073.397898831418
 20
-1654.674001950607
 42
-0.1763269807084497
 10
1073.444689942794
 20
-1654.54544442867
 10
1073.751107720042
 20
-1654.180269941801
 42
0.6370702608076355
 10
1073.597898831418
 20
-1653.851712419863
 42
-0.414213562373095
 10
1073.397898831418
 20
-1653.651712419863
 42
-0.1763269807084635
 10
1073.444689942794
 20
-1653.523154897926
 10
1073.751107720042
 20
-1653.157980411056
 42
0.637070260807482
 10
1073.597898831418
 20
-1652.829422889119
 42
-0.414213562373095
 10
1073.397898831418
 20
-1652.629422889119
 42
-0.1763269807084497
 10
1073.444689942794
 20
-1652.500865367182
 10
1073.751107720042
 20
-1652.135690880312
 42
0.637070260807482
 10
1073.597898831418
 20
-1651.807133358375
 42
-0.414213562373095
 10
1073.397898831418
 20
-1651.607133358375
 42
-0.1763269807084497
 10
1073.444689942794
 20
-1651.478575836438
 10
1073.751107720042
 20
-1651.113401349568
 42
0.637070260807482
 10
1073.597898831418
 20
-1650.784843827631
 42
-0.414213562373095
 10
1073.397898831418
 20
-1650.584843827631
 42
-0.1763269807084497
 10
1073.444689942794
 20
-1650.456286305693
 10
1073.797898831418
 20
-1650.03534834374
 10
1078.897898831418
 20
-1650.03534834374
 42
0.4142135623729353
 10
1079.197898831418
 20
-1649.73534834374
 10
1079.197898831418
 20
-1649.03534834374
 10
1078.197898831418
 20
-1648.03534834374
 10
1072.566332965715
 20
-1648.03534834374
 10
1071.035114754189
 20
-1648.56258905594
 42
0.3201025237009603
 10
1070.697898831418
 20
-1649.03534834374
 10
1070.697898831418
 20
-1649.13534834374
 42
0.414213562373095
 10
1071.197898831418
 20
-1649.63534834374
  0
HATCH
  5
AC
330
97
100
AcDbEntity
  8
FEIN
  6
Continuous
 62
   254
420
 13421772
100
AcDbHatch
 10
0.0
 20
0.0
 30
0.0
210
0.0
220
0.0
230
1.0
  2
SOLID
 70
     1
 71
     0
 91
        1
 92
       18
 72
     1
 73
     1
 93
       80
 10
1159.397898831418
 20
-1649.63534834374
 42
-0.414213562373095
 10
1159.697898831418
 20
-1649.93534834374
 42
0.0
 10
1159.697898831418
 20
-1652.73534834374
 42
-0.414213562373095
 10
1159.397898831418
 20
-1653.03534834374
 42
0.0
 10
1154.997898831418
 20
-1653.03534834374
 42
-0.414213562373095
 10
1154.697898831418
 20
-1652.73534834374
 42
0.0
 10
1154.697898831418
 20
-1649.93534834374
 42
-0.414213562373095
 10
1154.997898831418
 20
-1649.63534834374
 42
0.0
 10
1155.197898831418
 20
-1649.63534834374
 42
0.414213562373095
 10
1155.697898831418
 20
-1649.13534834374
 42
0.0
 10
1155.697898831418
 20
-1649.03534834374
 42
0.3201025237009659
 10
1155.360682908646
 20
-1648.56258905594
 42
0.0
 10
1153.829464697121
 20
-1648.03534834374
 42
0.0
 10
1148.197898831418
 20
-1648.03534834374
 42
0.0
 10
1147.197898831418
 20
-1649.03534834374
 42
0.0
 10
1147.197898831418
 20
-1649.73534834374
 42
0.4142135623728906
 10
1147.497898831418
 20
-1650.03534834374
 42
0.0
 10
1152.597898831418
 20
-1650.03534834374
 42
0.0
 10
1152.951107720042
 20
-1650.456286305693
 42
-0.1763269807084512
 10
1152.997898831418
 20
-1650.584843827631
 42
-0.414213562373095
 10
1152.797898831418
 20
-1650.784843827631
 42
0.6370702608074827
 10
1152.644689942794
 20
-1651.113401349568
 42
0.0
 10
1152.951107720042
 20
-1651.478575836438
 42
-0.1763269807084512
 10
1152.997898831418
 20
-1651.607133358375
 42
-0.414213562373095
 10
1152.797898831418
 20
-1651.807133358375
 42
0.6370702608074827
 10
1152.644689942794
 20
-1652.135690880312
 42
0.0
 10
1152.951107720042
 20
-1652.500865367182
 42
-0.1763269807084512
 10
1152.997898831418
 20
-1652.629422889119
 42
-0.414213562373095
 10
1152.797898831418
 20
-1652.829422889119
 42
0.6370702608074827
 10
1152.644689942794
 20
-1653.157980411056
 42
0.0
 10
1152.951107720042
 20
-1653.523154897926
 42
-0.1763269807084652
 10
1152.997898831418
 20
-1653.651712419863
 42
-0.414213562373095
 10
1152.797898831418
 20
-1653.851712419863
 42
0.6370702608076355
 10
1152.644689942794
 20
-1654.1802699418
 42
0.0
 10
1152.951107720042
 20
-1654.54544442867
 42
-0.1763269807084512
 10
1152.997898831418
 20
-1654.674001950607
 42
-0.414213562373095
 10
1152.797898831418
 20
-1654.874001950607
 42
0.5401597620289197
 10
1152.614493124709
 20
-1655.153766270617
 42
0.0
 10
1152.997898831418
 20
-1656.03534834374
 42
0.0
 10
1154.397898831418
 20
-1656.03534834374
 42
0.414213562373095
 10
1154.697898831418
 20
-1655.73534834374
 42
0.0
 10
1154.697898831418
 20
-1654.63534834374
 42
-0.414213562373095
 10
1154.997898831418
 20
-1654.33534834374
 42
0.0
 10
1156.897898831418
 20
-1654.33534834374
 42
0.9999999999999999
 10
1157.497898831418
 20
-1654.33534834374
 42
0.0
 10
1159.397898831418
 20
-1654.33534834374
 42
-0.414213562373095
 10
1159.697898831418
 20
-1654.63534834374
 42
0.0
 10
1159.697898831418
 20
-1655.73534834374
 42
0.414213562373095
 10
1159.997898831418
 20
-1656.03534834374
 42
0.0
 10
1161.397898831418
 20
-1656.03534834374
 42
0.0
 10
1161.781304538127
 20
-1655.153766270617
 42
0.5401597620289208
 10
1161.597898831418
 20
-1654.874001950607
 42
-0.414213562373095
 10
1161.397898831418
 20
-1654.674001950607
 42
-0.1763269807084497
 10
1161.444689942794
 20
-1654.54544442867
 42
0.0
 10
1161.751107720042
 20
-1654.180269941801
 42
0.6370702608076355
 10
1161.597898831418
 20
-1653.851712419863
 42
-0.414213562373095
 10
1161.397898831418
 20
-1653.651712419863
 42
-0.1763269807084635
 10
1161.444689942794
 20
-1653.523154897926
 42
0.0
 10
1161.751107720042
 20
-1653.157980411056
 42
0.637070260807482
 10
1161.597898831418
 20
-1652.829422889119
 42
-0.414213562373095
 10
1161.397898831418
 20
-1652.629422889119
 42
-0.1763269807084497
 10
1161.444689942794
 20
-1652.500865367182
 42
0.0
 10
1161.751107720042
 20
-1652.135690880312
 42
0.637070260807482
 10
1161.597898831418
 20
-1651.807133358375
 42
-0.414213562373095
 10
1161.397898831418
 20
-1651.607133358375
 42
-0.1763269807084497
 10
1161.444689942794
 20
-1651.478575836438
 42
0.0
 10
1161.751107720042
 20
-1651.113401349568
 42
0.637070260807482
 10
1161.597898831418
 20
-1650.784843827631
 42
-0.414213562373095
 10
1161.397898831418
 20
-1650.584843827631
 42
-0.1763269807084497
 10
1161.444689942794
 20
-1650.456286305693
 42
0.0
 10
1161.797898831418
 20
-1650.03534834374
 42
0.0
 10
1166.897898831418
 20
-1650.03534834374
 42
0.4142135623729353
 10
1167.197898831418
 20
-1649.73534834374
 42
0.0
 10
1167.197898831418
 20
-1649.03534834374
 42
0.0
 10
1166.197898831418
 20
-1648.03534834374
 42
0.0
 10
1160.566332965715
 20
-1648.03534834374
 42
0.0
 10
1159.035114754189
 20
-1648.56258905594
 42
0.3201025237009603
 10
1158.697898831418
 20
-1649.03534834374
 42
0.0
 10
1158.697898831418
 20
-1649.13534834374
 42
0.414213562373095
 10
1159.197898831418
 20
-1649.63534834374
 42
0.0
 97
        0
 75
     0
 76
     1
 98
        0
  0
LWPOLYLINE
  5
AD
330
97
100
AcDbEntity
  8
FEIN
  6
Continuous
100
AcDbPolyline
 90
       80
 70
     1
 43
0.0
 10
1159.397898831418
 20
-1649.63534834374
 42
-0.414213562373095
 10
1159.697898831418
 20
-1649.93534834374
 10
1159.697898831418
 20
-1652.73534834374
 42
-0.414213562373095
 10
1159.397898831418
 20
-1653.03534834374
 10
1154.997898831418
 20
-1653.03534834374
 42
-0.414213562373095
 10
1154.697898831418
 20
-1652.73534834374
 10
1154.697898831418
 20
-1649.93534834374
 42
-0.414213562373095
 10
1154.997898831418
 20
-1649.63534834374
 10
1155.197898831418
 20
-1649.63534834374
 42
0.414213562373095
 10
1155.697898831418
 20
-1649.13534834374
 10
1155.697898831418
 20
-1649.03534834374
 42
0.3201025237009659
 10
1155.360682908646
 20
-1648.56258905594
 10
1153.829464697121
 20
-1648.03534834374
 10
1148.197898831418
 20
-1648.03534834374
 10
1147.197898831418
 20
-1649.03534834374
 10
1147.197898831418
 20
-1649.73534834374
 42
0.4142135623728906
 10
1147.497898831418
 20
-1650.03534834374
 10
1152.597898831418
 20
-1650.03534834374
 10
1152.951107720042
 20
-1650.456286305693
 42
-0.1763269807084512
 10
1152.997898831418
 20
-1650.584843827631
 42
-0.414213562373095
 10
1152.797898831418
 20
-1650.784843827631
 42
0.6370702608074827
 10
1152.644689942794
 20
-1651.113401349568
 10
1152.951107720042
 20
-1651.478575836438
 42
-0.1763269807084512
 10
1152.997898831418
 20
-1651.607133358375
 42
-0.414213562373095
 10
1152.797898831418
 20
-1651.807133358375
 42
0.6370702608074827
 10
1152.644689942794
 20
-1652.135690880312
 10
1152.951107720042
 20
-1652.500865367182
 42
-0.1763269807084512
 10
1152.997898831418
 20
-1652.629422889119
 42
-0.414213562373095
 10
1152.797898831418
 20
-1652.829422889119
 42
0.6370702608074827
 10
1152.644689942794
 20
-1653.157980411056
 10
1152.951107720042
 20
-1653.523154897926
 42
-0.1763269807084652
 10
1152.997898831418
 20
-1653.651712419863
 42
-0.414213562373095
 10
1152.797898831418
 20
-1653.851712419863
 42
0.6370702608076355
 10
1152.644689942794
 20
-1654.1802699418
 10
1152.951107720042
 20
-1654.54544442867
 42
-0.1763269807084512
 10
1152.997898831418
 20
-1654.674001950607
 42
-0.414213562373095
 10
1152.797898831418
 20
-1654.874001950607
 42
0.5401597620289197
 10
1152.614493124709
 20
-1655.153766270617
 10
1152.997898831418
 20
-1656.03534834374
 10
1154.397898831418
 20
-1656.03534834374
 42
0.414213562373095
 10
1154.697898831418
 20
-1655.73534834374
 10
1154.697898831418
 20
-1654.63534834374
 42
-0.414213562373095
 10
1154.997898831418
 20
-1654.33534834374
 10
1156.897898831418
 20
-1654.33534834374
 42
0.9999999999999999
 10
1157.497898831418
 20
-1654.33534834374
 10
1159.397898831418
 20
-1654.33534834374
 42
-0.414213562373095
 10
1159.697898831418
 20
-1654.63534834374
 10
1159.697898831418
 20
-1655.73534834374
 42
0.414213562373095
 10
1159.997898831418
 20
-1656.03534834374
 10
1161.397898831418
 20
-1656.03534834374
 10
1161.781304538127
 20
-1655.153766270617
 42
0.5401597620289208
 10
1161.597898831418
 20
-1654.874001950607
 42
-0.414213562373095
 10
1161.397898831418
 20
-1654.674001950607
 42
-0.1763269807084497
 10
1161.444689942794
 20
-1654.54544442867
 10
1161.751107720042
 20
-1654.180269941801
 42
0.6370702608076355
 10
1161.597898831418
 20
-1653.851712419863
 42
-0.414213562373095
 10
1161.397898831418
 20
-1653.651712419863
 42
-0.1763269807084635
 10
1161.444689942794
 20
-1653.523154897926
 10
1161.751107720042
 20
-1653.157980411056
 42
0.637070260807482
 10
1161.597898831418
 20
-1652.829422889119
 42
-0.414213562373095
 10
1161.397898831418
 20
-1652.629422889119
 42
-0.1763269807084497
 10
1161.444689942794
 20
-1652.500865367182
 10
1161.751107720042
 20
-1652.135690880312
 42
0.637070260807482
 10
1161.597898831418
 20
-1651.807133358375
 42
-0.414213562373095
 10
1161.397898831418
 20
-1651.607133358375
 42
-0.1763269807084497
 10
1161.444689942794
 20
-1651.478575836438
 10
1161.751107720042
 20
-1651.113401349568
 42
0.637070260807482
 10
1161.597898831418
 20
-1650.784843827631
 42
-0.414213562373095
 10
1161.397898831418
 20
-1650.584843827631
 42
-0.1763269807084497
 10
1161.444689942794
 20
-1650.456286305693
 10
1161.797898831418
 20
-1650.03534834374
 10
1166.897898831418
 20
-1650.03534834374
 42
0.4142135623729353
 10
1167.197898831418
 20
-1649.73534834374
 10
1167.197898831418
 20
-1649.03534834374
 10
1166.197898831418
 20
-1648.03534834374
 10
1160.566332965715
 20
-1648.03534834374
 10
1159.035114754189
 20
-1648.56258905594
 42
0.3201025237009603
 10
1158.697898831418
 20
-1649.03534834374
 10
1158.697898831418
 20
-1649.13534834374
 42
0.414213562373095
 10
1159.197898831418
 20
-1649.63534834374
  0
HATCH
  5
AE
330
97
100
AcDbEntity
  8
FEIN
  6
Continuous
 62
   254
420
 13421772
100
AcDbHatch
 10
0.0
 20
0.0
 30
0.0
210
0.0
220
0.0
230
1.0
  2
SOLID
 70
     1
 71
     0
 91
        1
 92
       18
 72
     1
 73
     1
 93
       80
 10
1115.397898831418
 20
-1649.63534834374
 42
-0.414213562373095
 10
1115.697898831418
 20
-1649.93534834374
 42
0.0
 10
1115.697898831418
 20
-1652.73534834374
 42
-0.414213562373095
 10
1115.397898831418
 20
-1653.03534834374
 42
0.0
 10
1110.997898831418
 20
-1653.03534834374
 42
-0.414213562373095
 10
1110.697898831418
 20
-1652.73534834374
 42
0.0
 10
1110.697898831418
 20
-1649.93534834374
 42
-0.414213562373095
 10
1110.997898831418
 20
-1649.63534834374
 42
0.0
 10
1111.197898831418
 20
-1649.63534834374
 42
0.414213562373095
 10
1111.697898831418
 20
-1649.13534834374
 42
0.0
 10
1111.697898831418
 20
-1649.03534834374
 42
0.3201025237009659
 10
1111.360682908647
 20
-1648.56258905594
 42
0.0
 10
1109.829464697121
 20
-1648.03534834374
 42
0.0
 10
1104.197898831418
 20
-1648.03534834374
 42
0.0
 10
1103.197898831418
 20
-1649.03534834374
 42
0.0
 10
1103.197898831418
 20
-1649.73534834374
 42
0.4142135623728906
 10
1103.497898831418
 20
-1650.03534834374
 42
0.0
 10
1108.597898831418
 20
-1650.03534834374
 42
0.0
 10
1108.951107720042
 20
-1650.456286305693
 42
-0.1763269807084512
 10
1108.997898831418
 20
-1650.584843827631
 42
-0.414213562373095
 10
1108.797898831418
 20
-1650.784843827631
 42
0.6370702608074827
 10
1108.644689942794
 20
-1651.113401349568
 42
0.0
 10
1108.951107720042
 20
-1651.478575836438
 42
-0.1763269807084512
 10
1108.997898831418
 20
-1651.607133358375
 42
-0.414213562373095
 10
1108.797898831418
 20
-1651.807133358375
 42
0.6370702608074827
 10
1108.644689942794
 20
-1652.135690880312
 42
0.0
 10
1108.951107720042
 20
-1652.500865367182
 42
-0.1763269807084512
 10
1108.997898831418
 20
-1652.629422889119
 42
-0.414213562373095
 10
1108.797898831418
 20
-1652.829422889119
 42
0.6370702608074827
 10
1108.644689942794
 20
-1653.157980411056
 42
0.0
 10
1108.951107720042
 20
-1653.523154897926
 42
-0.1763269807084652
 10
1108.997898831418
 20
-1653.651712419863
 42
-0.414213562373095
 10
1108.797898831418
 20
-1653.851712419863
 42
0.6370702608076355
 10
1108.644689942794
 20
-1654.1802699418
 42
0.0
 10
1108.951107720042
 20
-1654.54544442867
 42
-0.1763269807084512
 10
1108.997898831418
 20
-1654.674001950607
 42
-0.414213562373095
 10
1108.797898831418
 20
-1654.874001950607
 42
0.5401597620289197
 10
1108.614493124709
 20
-1655.153766270617
 42
0.0
 10
1108.997898831418
 20
-1656.03534834374
 42
0.0
 10
1110.397898831418
 20
-1656.03534834374
 42
0.414213562373095
 10
1110.697898831418
 20
-1655.73534834374
 42
0.0
 10
1110.697898831418
 20
-1654.63534834374
 42
-0.414213562373095
 10
1110.997898831418
 20
-1654.33534834374
 42
0.0
 10
1112.897898831418
 20
-1654.33534834374
 42
0.9999999999999999
 10
1113.497898831418
 20
-1654.33534834374
 42
0.0
 10
1115.397898831418
 20
-1654.33534834374
 42
-0.414213562373095
 10
1115.697898831418
 20
-1654.63534834374
 42
0.0
 10
1115.697898831418
 20
-1655.73534834374
 42
0.414213562373095
 10
1115.997898831418
 20
-1656.03534834374
 42
0.0
 10
1117.397898831418
 20
-1656.03534834374
 42
0.0
 10
1117.781304538127
 20
-1655.153766270617
 42
0.5401597620289208
 10
1117.597898831418
 20
-1654.874001950607
 42
-0.414213562373095
 10
1117.397898831418
 20
-1654.674001950607
 42
-0.1763269807084497
 10
1117.444689942794
 20
-1654.54544442867
 42
0.0
 10
1117.751107720042
 20
-1654.180269941801
 42
0.6370702608076355
 10
1117.597898831418
 20
-1653.851712419863
 42
-0.414213562373095
 10
1117.397898831418
 20
-1653.651712419863
 42
-0.1763269807084635
 10
1117.444689942794
 20
-1653.523154897926
 42
0.0
 10
1117.751107720042
 20
-1653.157980411056
 42
0.637070260807482
 10
1117.597898831418
 20
-1652.829422889119
 42
-0.414213562373095
 10
1117.397898831418
 20
-1652.629422889119
 42
-0.1763269807084497
 10
1117.444689942794
 20
-1652.500865367182
 42
0.0
 10
1117.751107720042
 20
-1652.135690880312
 42
0.637070260807482
 10
1117.597898831418
 20
-1651.807133358375
 42
-0.414213562373095
 10
1117.397898831418
 20
-1651.607133358375
 42
-0.1763269807084497
 10
1117.444689942794
 20
-1651.478575836438
 42
0.0
 10
1117.751107720042
 20
-1651.113401349568
 42
0.637070260807482
 10
1117.597898831418
 20
-1650.784843827631
 42
-0.414213562373095
 10
1117.397898831418
 20
-1650.584843827631
 42
-0.1763269807084497
 10
1117.444689942794
 20
-1650.456286305693
 42
0.0
 10
1117.797898831418
 20
-1650.03534834374
 42
0.0
 10
1122.897898831418
 20
-1650.03534834374
 42
0.4142135623729353
 10
1123.197898831418
 20
-1649.73534834374
 42
0.0
 10
1123.197898831418
 20
-1649.03534834374
 42
0.0
 10
1122.197898831418
 20
-1648.03534834374
 42
0.0
 10
1116.566332965715
 20
-1648.03534834374
 42
0.0
 10
1115.035114754189
 20
-1648.56258905594
 42
0.3201025237009603
 10
1114.697898831418
 20
-1649.03534834374
 42
0.0
 10
1114.697898831418
 20
-1649.13534834374
 42
0.414213562373095
 10
1115.197898831418
 20
-1649.63534834374
 42
0.0
 97
        0
 75
     0
 76
     1
 98
        0
  0
LWPOLYLINE
  5
AF
330
97
100
AcDbEntity
  8
FEIN
  6
Continuous
100
AcDbPolyline
 90
       80
 70
     1
 43
0.0
 10
1115.397898831418
 20
-1649.63534834374
 42
-0.414213562373095
 10
1115.697898831418
 20
-1649.93534834374
 10
1115.697898831418
 20
-1652.73534834374
 42
-0.414213562373095
 10
1115.397898831418
 20
-1653.03534834374
 10
1110.997898831418
 20
-1653.03534834374
 42
-0.414213562373095
 10
1110.697898831418
 20
-1652.73534834374
 10
1110.697898831418
 20
-1649.93534834374
 42
-0.414213562373095
 10
1110.997898831418
 20
-1649.63534834374
 10
1111.197898831418
 20
-1649.63534834374
 42
0.414213562373095
 10
1111.697898831418
 20
-1649.13534834374
 10
1111.697898831418
 20
-1649.03534834374
 42
0.3201025237009659
 10
1111.360682908647
 20
-1648.56258905594
 10
1109.829464697121
 20
-1648.03534834374
 10
1104.197898831418
 20
-1648.03534834374
 10
1103.197898831418
 20
-1649.03534834374
 10
1103.197898831418
 20
-1649.73534834374
 42
0.4142135623728906
 10
1103.497898831418
 20
-1650.03534834374
 10
1108.597898831418
 20
-1650.03534834374
 10
1108.951107720042
 20
-1650.456286305693
 42
-0.1763269807084512
 10
1108.997898831418
 20
-1650.584843827631
 42
-0.414213562373095
 10
1108.797898831418
 20
-1650.784843827631
 42
0.6370702608074827
 10
1108.644689942794
 20
-1651.113401349568
 10
1108.951107720042
 20
-1651.478575836438
 42
-0.1763269807084512
 10
1108.997898831418
 20
-1651.607133358375
 42
-0.414213562373095
 10
1108.797898831418
 20
-1651.807133358375
 42
0.6370702608074827
 10
1108.644689942794
 20
-1652.135690880312
 10
1108.951107720042
 20
-1652.500865367182
 42
-0.1763269807084512
 10
1108.997898831418
 20
-1652.629422889119
 42
-0.414213562373095
 10
1108.797898831418
 20
-1652.829422889119
 42
0.6370702608074827
 10
1108.644689942794
 20
-1653.157980411056
 10
1108.951107720042
 20
-1653.523154897926
 42
-0.1763269807084652
 10
1108.997898831418
 20
-1653.651712419863
 42
-0.414213562373095
 10
1108.797898831418
 20
-1653.851712419863
 42
0.6370702608076355
 10
1108.644689942794
 20
-1654.1802699418
 10
1108.951107720042
 20
-1654.54544442867
 42
-0.1763269807084512
 10
1108.997898831418
 20
-1654.674001950607
 42
-0.414213562373095
 10
1108.797898831418
 20
-1654.874001950607
 42
0.5401597620289197
 10
1108.614493124709
 20
-1655.153766270617
 10
1108.997898831418
 20
-1656.03534834374
 10
1110.397898831418
 20
-1656.03534834374
 42
0.414213562373095
 10
1110.697898831418
 20
-1655.73534834374
 10
1110.697898831418
 20
-1654.63534834374
 42
-0.414213562373095
 10
1110.997898831418
 20
-1654.33534834374
 10
1112.897898831418
 20
-1654.33534834374
 42
0.9999999999999999
 10
1113.497898831418
 20
-1654.33534834374
 10
1115.397898831418
 20
-1654.33534834374
 42
-0.414213562373095
 10
1115.697898831418
 20
-1654.63534834374
 10
1115.697898831418
 20
-1655.73534834374
 42
0.414213562373095
 10
1115.997898831418
 20
-1656.03534834374
 10
1117.397898831418
 20
-1656.03534834374
 10
1117.781304538127
 20
-1655.153766270617
 42
0.5401597620289208
 10
1117.597898831418
 20
-1654.874001950607
 42
-0.414213562373095
 10
1117.397898831418
 20
-1654.674001950607
 42
-0.1763269807084497
 10
1117.444689942794
 20
-1654.54544442867
 10
1117.751107720042
 20
-1654.180269941801
 42
0.6370702608076355
 10
1117.597898831418
 20
-1653.851712419863
 42
-0.414213562373095
 10
1117.397898831418
 20
-1653.651712419863
 42
-0.1763269807084635
 10
1117.444689942794
 20
-1653.523154897926
 10
1117.751107720042
 20
-1653.157980411056
 42
0.637070260807482
 10
1117.597898831418
 20
-1652.829422889119
 42
-0.414213562373095
 10
1117.397898831418
 20
-1652.629422889119
 42
-0.1763269807084497
 10
1117.444689942794
 20
-1652.500865367182
 10
1117.751107720042
 20
-1652.135690880312
 42
0.637070260807482
 10
1117.597898831418
 20
-1651.807133358375
 42
-0.414213562373095
 10
1117.397898831418
 20
-1651.607133358375
 42
-0.1763269807084497
 10
1117.444689942794
 20
-1651.478575836438
 10
1117.751107720042
 20
-1651.113401349568
 42
0.637070260807482
 10
1117.597898831418
 20
-1650.784843827631
 42
-0.414213562373095
 10
1117.397898831418
 20
-1650.584843827631
 42
-0.1763269807084497
 10
1117.444689942794
 20
-1650.456286305693
 10
1117.797898831418
 20
-1650.03534834374
 10
1122.897898831418
 20
-1650.03534834374
 42
0.4142135623729353
 10
1123.197898831418
 20
-1649.73534834374
 10
1123.197898831418
 20
-1649.03534834374
 10
1122.197898831418
 20
-1648.03534834374
 10
1116.566332965715
 20
-1648.03534834374
 10
1115.035114754189
 20
-1648.56258905594
 42
0.3201025237009603
 10
1114.697898831418
 20
-1649.03534834374
 10
1114.697898831418
 20
-1649.13534834374
 42
0.414213562373095
 10
1115.197898831418
 20
-1649.63534834374
  0
ENDBLK
  5
B1
330
97
100
AcDbEntity
  8
0
100
AcDbBlockEnd
  0
BLOCK
  5
9B
330
98
100
AcDbEntity
  8
0
100
AcDbBlockBegin
  2
*U4
 70
     1
 10
0.0
 20
0.0
 30
0.0
  3
*U4
  1

  0
HATCH
  5
99
330
98
100
AcDbEntity
  8
FEIN
 62
   254
420
 13421772
100
AcDbHatch
 10
0.0
 20
0.0
 30
0.0
210
0.0
220
0.0
230
1.0
  2
SOLID
 70
     1
 71
     0
 91
        1
 92
       18
 72
     1
 73
     1
 93
       28
 10
22.00000000000045
 20
-8.5
 42
0.0
 10
17.55000000000045
 20
-8.5
 42
-0.4142135623730742
 10
17.35000000000045
 20
-8.299999999999997
 42
0.0
 10
17.35000000000045
 20
-0.7499999999999716
 42
1.008415861023417
 10
17.3458099226925
 20
-0.2500351159621061
 42
0.3660110354048619
 10
17.05000000000047
 20
0.0
 42
0.0
 10
16.45000000000046
 20
0.0
 42
0.4142135623730811
 10
16.15000000000047
 20
-0.3000000000000114
 42
0.0
 10
16.15000000000045
 20
-8.299999999999997
 42
-0.4142135623730742
 10
15.95000000000046
 20
-8.5
 42
0.0
 10
1.000000000000469
 20
-8.5
 42
0.0
 10
0.0000000000004547
 20
-9.5
 42
0.0
 10
0.000000000000469
 20
-9.799999999999983
 42
0.4142135623730742
 10
0.2000000000004576
 20
-10.0
 42
0.0
 10
22.00000000000045
 20
-10.0
 42
0.0
 10
43.80000000000044
 20
-10.0
 42
0.4142135623730742
 10
44.00000000000043
 20
-9.799999999999997
 42
0.0
 10
44.00000000000044
 20
-9.5
 42
0.0
 10
43.00000000000043
 20
-8.5
 42
0.0
 10
28.05000000000044
 20
-8.5
 42
-0.4142135623730742
 10
27.85000000000045
 20
-8.299999999999997
 42
0.0
 10
27.85000000000042
 20
-0.3000000000000114
 42
0.4142135623730811
 10
27.55000000000044
 20
0.0
 42
0.0
 10
26.95000000000043
 20
0.0
 42
0.3660110354048619
 10
26.6541900773084
 20
-0.2500351159621061
 42
1.008415861023417
 10
26.65000000000045
 20
-0.7499999999999716
 42
0.0
 10
26.65000000000045
 20
-8.299999999999997
 42
-0.4142135623730742
 10
26.45000000000044
 20
-8.5
 42
0.0
 97
        0
 75
     0
 76
     1
 98
        0
  0
LWPOLYLINE
  5
9A
330
98
100
AcDbEntity
  8
FEIN
100
AcDbPolyline
 90
       28
 70
     1
 43
0.0
 10
22.00000000000045
 20
-8.5
 10
17.55000000000045
 20
-8.5
 42
-0.4142135623730742
 10
17.35000000000045
 20
-8.299999999999997
 10
17.35000000000045
 20
-0.7499999999999716
 42
1.008415861023417
 10
17.3458099226925
 20
-0.2500351159621061
 42
0.3660110354048619
 10
17.05000000000047
 20
0.0
 10
16.45000000000046
 20
0.0
 42
0.4142135623730811
 10
16.15000000000047
 20
-0.3000000000000114
 10
16.15000000000045
 20
-8.299999999999997
 42
-0.4142135623730742
 10
15.95000000000046
 20
-8.5
 10
1.000000000000469
 20
-8.5
 10
0.0000000000004547
 20
-9.5
 10
0.000000000000469
 20
-9.799999999999983
 42
0.4142135623730742
 10
0.2000000000004576
 20
-10.0
 10
22.00000000000045
 20
-10.0
 10
43.80000000000044
 20
-10.0
 42
0.4142135623730742
 10
44.00000000000043
 20
-9.799999999999997
 10
44.00000000000044
 20
-9.5
 10
43.00000000000043
 20
-8.5
 10
28.05000000000044
 20
-8.5
 42
-0.4142135623730742
 10
27.85000000000045
 20
-8.299999999999997
 10
27.85000000000042
 20
-0.3000000000000114
 42
0.4142135623730811
 10
27.55000000000044
 20
0.0
 10
26.95000000000043
 20
0.0
 42
0.3660110354048619
 10
26.6541900773084
 20
-0.2500351159621061
 42
1.008415861023417
 10
26.65000000000045
 20
-0.7499999999999716
 10
26.65000000000045
 20
-8.299999999999997
 42
-0.4142135623730742
 10
26.45000000000044
 20
-8.5
  0
ENDBLK
  5
9C
330
98
100
AcDbEntity
  8
0
100
AcDbBlockEnd
  0
BLOCK
  5
A1
330
9E
100
AcDbEntity
  8
0
100
AcDbBlockBegin
  2
*U5
 70
     1
 10
0.0
 20
0.0
 30
0.0
  3
*U5
  1

  0
HATCH
  5
9F
330
9E
100
AcDbEntity
  8
FEIN
 62
   254
420
 13421772
100
AcDbHatch
 10
0.0
 20
0.0
 30
0.0
210
0.0
220
0.0
230
1.0
  2
SOLID
 70
     1
 71
     0
 91
        1
 92
       18
 72
     1
 73
     1
 93
       28
 10
22.00000000000045
 20
-8.5
 42
0.0
 10
17.55000000000045
 20
-8.5
 42
-0.4142135623730742
 10
17.35000000000045
 20
-8.299999999999997
 42
0.0
 10
17.35000000000045
 20
-0.7499999999999716
 42
1.008415861023417
 10
17.3458099226925
 20
-0.2500351159621061
 42
0.3660110354048619
 10
17.05000000000047
 20
0.0
 42
0.0
 10
16.45000000000046
 20
0.0
 42
0.4142135623730811
 10
16.15000000000047
 20
-0.3000000000000114
 42
0.0
 10
16.15000000000045
 20
-8.299999999999997
 42
-0.4142135623730742
 10
15.95000000000046
 20
-8.5
 42
0.0
 10
1.000000000000469
 20
-8.5
 42
0.0
 10
0.0000000000004547
 20
-9.5
 42
0.0
 10
0.000000000000469
 20
-9.799999999999983
 42
0.4142135623730742
 10
0.2000000000004576
 20
-10.0
 42
0.0
 10
22.00000000000045
 20
-10.0
 42
0.0
 10
43.80000000000044
 20
-10.0
 42
0.4142135623730742
 10
44.00000000000043
 20
-9.799999999999997
 42
0.0
 10
44.00000000000044
 20
-9.5
 42
0.0
 10
43.00000000000043
 20
-8.5
 42
0.0
 10
28.05000000000044
 20
-8.5
 42
-0.4142135623730742
 10
27.85000000000045
 20
-8.299999999999997
 42
0.0
 10
27.85000000000042
 20
-0.3000000000000114
 42
0.4142135623730811
 10
27.55000000000044
 20
0.0
 42
0.0
 10
26.95000000000043
 20
0.0
 42
0.3660110354048619
 10
26.6541900773084
 20
-0.2500351159621061
 42
1.008415861023417
 10
26.65000000000045
 20
-0.7499999999999716
 42
0.0
 10
26.65000000000045
 20
-8.299999999999997
 42
-0.4142135623730742
 10
26.45000000000044
 20
-8.5
 42
0.0
 97
        0
 75
     0
 76
     1
 98
        0
  0
LWPOLYLINE
  5
A0
330
9E
100
AcDbEntity
  8
FEIN
100
AcDbPolyline
 90
       28
 70
     1
 43
0.0
 10
22.00000000000045
 20
-8.5
 10
17.55000000000045
 20
-8.5
 42
-0.4142135623730742
 10
17.35000000000045
 20
-8.299999999999997
 10
17.35000000000045
 20
-0.7499999999999716
 42
1.008415861023417
 10
17.3458099226925
 20
-0.2500351159621061
 42
0.3660110354048619
 10
17.05000000000047
 20
0.0
 10
16.45000000000046
 20
0.0
 42
0.4142135623730811
 10
16.15000000000047
 20
-0.3000000000000114
 10
16.15000000000045
 20
-8.299999999999997
 42
-0.4142135623730742
 10
15.95000000000046
 20
-8.5
 10
1.000000000000469
 20
-8.5
 10
0.0000000000004547
 20
-9.5
 10
0.000000000000469
 20
-9.799999999999983
 42
0.4142135623730742
 10
0.2000000000004576
 20
-10.0
 10
22.00000000000045
 20
-10.0
 10
43.80000000000044
 20
-10.0
 42
0.4142135623730742
 10
44.00000000000043
 20
-9.799999999999997
 10
44.00000000000044
 20
-9.5
 10
43.00000000000043
 20
-8.5
 10
28.05000000000044
 20
-8.5
 42
-0.4142135623730742
 10
27.85000000000045
 20
-8.299999999999997
 10
27.85000000000042
 20
-0.3000000000000114
 42
0.4142135623730811
 10
27.55000000000044
 20
0.0
 10
26.95000000000043
 20
0.0
 42
0.3660110354048619
 10
26.6541900773084
 20
-0.2500351159621061
 42
1.008415861023417
 10
26.65000000000045
 20
-0.7499999999999716
 10
26.65000000000045
 20
-8.299999999999997
 42
-0.4142135623730742
 10
26.45000000000044
 20
-8.5
  0
ENDBLK
  5
A2
330
9E
100
AcDbEntity
  8
0
100
AcDbBlockEnd
  0
BLOCK
  5
A7
330
A4
100
AcDbEntity
  8
0
100
AcDbBlockBegin
  2
*U6
 70
     1
 10
0.0
 20
0.0
 30
0.0
  3
*U6
  1

  0
HATCH
  5
A5
330
A4
100
AcDbEntity
  8
FEIN
 62
   254
420
 13421772
100
AcDbHatch
 10
0.0
 20
0.0
 30
0.0
210
0.0
220
0.0
230
1.0
  2
SOLID
 70
     1
 71
     0
 91
        1
 92
       18
 72
     1
 73
     1
 93
       28
 10
22.00000000000045
 20
-8.5
 42
0.0
 10
17.55000000000045
 20
-8.5
 42
-0.4142135623730742
 10
17.35000000000045
 20
-8.299999999999997
 42
0.0
 10
17.35000000000045
 20
-0.7499999999999716
 42
1.008415861023417
 10
17.3458099226925
 20
-0.2500351159621061
 42
0.3660110354048619
 10
17.05000000000047
 20
0.0
 42
0.0
 10
16.45000000000046
 20
0.0
 42
0.4142135623730811
 10
16.15000000000047
 20
-0.3000000000000114
 42
0.0
 10
16.15000000000045
 20
-8.299999999999997
 42
-0.4142135623730742
 10
15.95000000000046
 20
-8.5
 42
0.0
 10
1.000000000000469
 20
-8.5
 42
0.0
 10
0.0000000000004547
 20
-9.5
 42
0.0
 10
0.000000000000469
 20
-9.799999999999983
 42
0.4142135623730742
 10
0.2000000000004576
 20
-10.0
 42
0.0
 10
22.00000000000045
 20
-10.0
 42
0.0
 10
43.80000000000044
 20
-10.0
 42
0.4142135623730742
 10
44.00000000000043
 20
-9.799999999999997
 42
0.0
 10
44.00000000000044
 20
-9.5
 42
0.0
 10
43.00000000000043
 20
-8.5
 42
0.0
 10
28.05000000000044
 20
-8.5
 42
-0.4142135623730742
 10
27.85000000000045
 20
-8.299999999999997
 42
0.0
 10
27.85000000000042
 20
-0.3000000000000114
 42
0.4142135623730811
 10
27.55000000000044
 20
0.0
 42
0.0
 10
26.95000000000043
 20
0.0
 42
0.3660110354048619
 10
26.6541900773084
 20
-0.2500351159621061
 42
1.008415861023417
 10
26.65000000000045
 20
-0.7499999999999716
 42
0.0
 10
26.65000000000045
 20
-8.299999999999997
 42
-0.4142135623730742
 10
26.45000000000044
 20
-8.5
 42
0.0
 97
        0
 75
     0
 76
     1
 98
        0
  0
LWPOLYLINE
  5
A6
330
A4
100
AcDbEntity
  8
FEIN
100
AcDbPolyline
 90
       28
 70
     1
 43
0.0
 10
22.00000000000045
 20
-8.5
 10
17.55000000000045
 20
-8.5
 42
-0.4142135623730742
 10
17.35000000000045
 20
-8.299999999999997
 10
17.35000000000045
 20
-0.7499999999999716
 42
1.008415861023417
 10
17.3458099226925
 20
-0.2500351159621061
 42
0.3660110354048619
 10
17.05000000000047
 20
0.0
 10
16.45000000000046
 20
0.0
 42
0.4142135623730811
 10
16.15000000000047
 20
-0.3000000000000114
 10
16.15000000000045
 20
-8.299999999999997
 42
-0.4142135623730742
 10
15.95000000000046
 20
-8.5
 10
1.000000000000469
 20
-8.5
 10
0.0000000000004547
 20
-9.5
 10
0.000000000000469
 20
-9.799999999999983
 42
0.4142135623730742
 10
0.2000000000004576
 20
-10.0
 10
22.00000000000045
 20
-10.0
 10
43.80000000000044
 20
-10.0
 42
0.4142135623730742
 10
44.00000000000043
 20
-9.799999999999997
 10
44.00000000000044
 20
-9.5
 10
43.00000000000043
 20
-8.5
 10
28.05000000000044
 20
-8.5
 42
-0.4142135623730742
 10
27.85000000000045
 20
-8.299999999999997
 10
27.85000000000042
 20
-0.3000000000000114
 42
0.4142135623730811
 10
27.55000000000044
 20
0.0
 10
26.95000000000043
 20
0.0
 42
0.3660110354048619
 10
26.6541900773084
 20
-0.2500351159621061
 42
1.008415861023417
 10
26.65000000000045
 20
-0.7499999999999716
 10
26.65000000000045
 20
-8.299999999999997
 42
-0.4142135623730742
 10
26.45000000000044
 20
-8.5
  0
ENDBLK
  5
A8
330
A4
100
AcDbEntity
  8
0
100
AcDbBlockEnd
  0
ENDSEC
  0
SECTION
  2
ENTITIES
  0
DIMENSION
  5
7A
330
1F
100
AcDbEntity
  8
Maße
100
AcDbDimension
280
     0
  2
*D1
 10
1026.606635061833
 20
811.9999999999995
 30
0.0
 11
1026.606635061833
 21
805.9999999999995
 31
0.0
 70
   161
 71
     5
 42
12.0
 73
     0
 74
     0
 75
     0
  3
Standard
100
AcDbAlignedDimension
 13
1019.606635061833
 23
799.9999999999995
 33
0.0
 14
1019.606635061833
 24
811.9999999999995
 34
0.0
1001
ACAD
1000
DSTYLE
1002
{
1070
   279
1070
     2
1070
   289
1070
     0
1002
}
  0
DIMENSION
  5
89
330
1F
100
AcDbEntity
  8
Maße
100
AcDbDimension
280
     0
  2
*D2
 10
1019.606635061833
 20
792.9999999999998
 30
0.0
 11
953.6066350618337
 21
792.9999999999998
 31
0.0
 70
   161
 71
     5
 42
131.9999999999998
 73
     0
 74
     0
 75
     0
  3
Standard
100
AcDbAlignedDimension
 13
887.6066350618337
 23
799.9999999999995
 33
0.0
 14
1019.606635061833
 24
799.9999999999995
 34
0.0
1001
ACAD
1000
DSTYLE
1002
{
1070
   279
1070
     2
1070
   289
1070
     0
1002
}
  0
INSERT
  5
B2
330
1F
100
AcDbEntity
  8
FEIN
100
AcDbBlockReference
  2
*U3
 10
-159.5912637695844
 20
2460.035348343739
 30
0.0
  0
TEXT
  5
B3
330
1F
100
AcDbEntity
  8
Schrift
 62
    16
420
  8323072
100
AcDbText
 10
713.0
 20
806.1607874124072
 30
0.0
 40
6.0
  1
Laufschieneinsatz eingel. 3-läufig
100
AcDbText
  0
ENDSEC
  0
SECTION
  2
OBJECTS
  0
DICTIONARY
  5
C
330
0
100
AcDbDictionary
281
     1
  3
ACAD_DETAILVIEWSTYLE
350
BB
  3
ACAD_GROUP
350
D
  3
ACAD_LAYOUT
350
1A
  3
ACAD_MATERIAL
350
43
  3
ACAD_MLEADERSTYLE
350
6B
  3
ACAD_MLINESTYLE
350
17
  3
ACAD_PLOTSETTINGS
350
19
  3
ACAD_PLOTSTYLENAME
350
E
  3
ACAD_SCALELIST
350
47
  3
ACAD_SECTIONVIEWSTYLE
350
BC
  3
ACAD_TABLESTYLE
350
69
  3
ACAD_VISUALSTYLE
350
2A
  3
ACDB_RECOMPOSE_DATA
350
B8
  3
AcDbVariableDictionary
350
B4
  0
SUN
  5
6D
330
29
100
AcDbSun
 90
        1
290
     0
 63
     7
421
 16777215
 40
1.0
291
     1
 91
  2455826
 92
 54000000
292
     0
 70
     2
 71
   256
280
     1
  0
DICTIONARY
  5
BB
102
{ACAD_REACTORS
330
C
102
}
330
C
100
AcDbDictionary
281
     1
  0
DICTIONARY
  5
D
102
{ACAD_REACTORS
330
C
102
}
330
C
100
AcDbDictionary
281
     1
  0
DICTIONARY
  5
1A
102
{ACAD_REACTORS
330
C
102
}
330
C
100
AcDbDictionary
281
     1
  3
Layout1
350
1E
  3
Layout2
350
26
  3
Model
350
22
  0
DICTIONARY
  5
43
102
{ACAD_REACTORS
330
C
102
}
330
C
100
AcDbDictionary
281
     1
  3
ByBlock
350
45
  3
ByLayer
350
44
  3
Global
350
46
  0
DICTIONARY
  5
6B
102
{ACAD_REACTORS
330
C
102
}
330
C
100
AcDbDictionary
281
     1
  3
Standard
350
6C
  0
DICTIONARY
  5
17
102
{ACAD_REACTORS
330
C
102
}
330
C
100
AcDbDictionary
281
     1
  3
Standard
350
18
  0
DICTIONARY
  5
19
102
{ACAD_REACTORS
330
C
102
}
330
C
100
AcDbDictionary
281
     1
  0
ACDBDICTIONARYWDFLT
  5
E
102
{ACAD_REACTORS
330
C
102
}
330
C
100
AcDbDictionary
281
     1
  3
Normal
350
F
100
AcDbDictionaryWithDefault
340
F
  0
DICTIONARY
  5
47
102
{ACAD_REACTORS
330
C
102
}
330
C
100
AcDbDictionary
281
     1
  3
A0
350
48
  3
A1
350
49
  3
A2
350
4A
  3
A3
350
4B
  3
A4
350
4C
  3
A5
350
4D
  3
A6
350
4E
  3
A7
350
4F
  3
A8
350
50
  3
A9
350
51
  3
B0
350
52
  3
B1
350
53
  3
B2
350
54
  3
B3
350
55
  3
B4
350
56
  3
B5
350
57
  3
B6
350
58
  3
B7
350
59
  3
B8
350
5A
  3
B9
350
5B
  3
C0
350
5C
  3
C1
350
5D
  3
C2
350
5E
  3
C3
350
5F
  3
C4
350
60
  3
C5
350
61
  3
C6
350
62
  3
C7
350
63
  3
C8
350
64
  3
C9
350
65
  3
D0
350
66
  3
D1
350
67
  3
D2
350
68
  0
DICTIONARY
  5
BC
102
{ACAD_REACTORS
330
C
102
}
330
C
100
AcDbDictionary
281
     1
  0
DICTIONARY
  5
69
102
{ACAD_REACTORS
330
C
102
}
330
C
100
AcDbDictionary
281
     1
  3
Standard
350
6A
  0
DICTIONARY
  5
2A
102
{ACAD_REACTORS
330
C
102
}
330
C
100
AcDbDictionary
281
     1
  3
2dWireframe
350
2F
  3
Basic
350
32
  3
Brighten
350
36
  3
ColorChange
350
3A
  3
Conceptual
350
34
  3
Dim
350
35
  3
EdgeColorOff
350
3D
  3
Facepattern
350
39
  3
Flat
350
2B
  3
FlatWithEdges
350
2C
  3
Gouraud
350
2D
  3
GouraudWithEdges
350
2E
  3
Hidden
350
31
  3
JitterOff
350
3B
  3
Linepattern
350
38
  3
OverhangOff
350
3C
  3
Realistic
350
33
  3
Shaded
350
42
  3
Shaded with edges
350
41
  3
Shades of Gray
350
3E
  3
Sketchy
350
3F
  3
Thicken
350
37
  3
Wireframe
350
30
  3
X-Ray
350
40
  0
XRECORD
  5
B8
102
{ACAD_REACTORS
330
C
102
}
330
C
100
AcDbXrecord
280
     1
 90
        1
330
6A
  0
DICTIONARY
  5
B4
102
{ACAD_REACTORS
330
C
102
}
330
C
100
AcDbDictionary
281
     1
  3
CANNOSCALE
350
B5
  3
CENTEREXE
350
BD
  3
CENTERLTYPEFILE
350
BE
  3
CMLEADERSTYLE
350
BA
  3
CTABLESTYLE
350
B9
  0
LAYOUT
  5
1E
102
{ACAD_REACTORS
330
1A
102
}
330
1A
100
AcDbPlotSettings
  1

  2
none_device
  4

  6

 40
0.0
 41
0.0
 42
0.0
 43
0.0
 44
0.0
 45
0.0
 46
0.0
 47
0.0
 48
0.0
 49
0.0
140
0.0
141
0.0
142
1.0
143
1.0
 70
   688
 72
     1
 73
     0
 74
     5
  7

 75
    16
 76
     0
 77
     2
 78
   300
147
1.0
148
0.0
149
0.0
100
AcDbLayout
  1
Layout1
 70
     1
 71
     1
 10
0.0
 20
0.0
 11
420.0
 21
297.0
 12
0.0
 22
0.0
 32
0.0
 14
1.000000000000000E+20
 24
1.000000000000000E+20
 34
1.000000000000000E+20
 15
-1.000000000000000E+20
 25
-1.000000000000000E+20
 35
-1.000000000000000E+20
146
0.0
 13
0.0
 23
0.0
 33
0.0
 16
1.0
 26
0.0
 36
0.0
 17
0.0
 27
1.0
 37
0.0
 76
     0
330
1B
  0
LAYOUT
  5
26
102
{ACAD_REACTORS
330
1A
102
}
330
1A
100
AcDbPlotSettings
  1

  2
none_device
  4

  6

 40
0.0
 41
0.0
 42
0.0
 43
0.0
 44
0.0
 45
0.0
 46
0.0
 47
0.0
 48
0.0
 49
0.0
140
0.0
141
0.0
142
1.0
143
1.0
 70
   688
 72
     1
 73
     0
 74
     5
  7

 75
    16
 76
     0
 77
     2
 78
   300
147
1.0
148
0.0
149
0.0
100
AcDbLayout
  1
Layout2
 70
     1
 71
     2
 10
0.0
 20
0.0
 11
0.0
 21
0.0
 12
0.0
 22
0.0
 32
0.0
 14
0.0
 24
0.0
 34
0.0
 15
0.0
 25
0.0
 35
0.0
146
0.0
 13
0.0
 23
0.0
 33
0.0
 16
1.0
 26
0.0
 36
0.0
 17
0.0
 27
1.0
 37
0.0
 76
     0
330
23
  0
LAYOUT
  5
22
102
{ACAD_REACTORS
330
1A
102
}
330
1A
100
AcDbPlotSettings
  1

  2
none_device
  4
Letter_(8.50_x_11.00_Inches)
  6

 40
6.35
 41
6.35
 42
6.35000508
 43
6.35000508
 44
215.9
 45
279.4
 46
0.0
 47
0.0
 48
0.0
 49
0.0
140
0.0
141
0.0
142
1.0
143
1.0
 70
  1712
 72
     1
 73
     0
 74
     0
  7

 75
     0
 76
     0
 77
     2
 78
   300
147
1.0
148
0.0
149
0.0
100
AcDbLayout
  1
Model
 70
     1
 71
     0
 10
0.0
 20
0.0
 11
420.0
 21
297.0
 12
0.0
 22
0.0
 32
0.0
 14
1.000000000000000E+20
 24
1.000000000000000E+20
 34
1.000000000000000E+20
 15
-1.000000000000000E+20
 25
-1.000000000000000E+20
 35
-1.000000000000000E+20
146
0.0
 13
0.0
 23
0.0
 33
0.0
 16
1.0
 26
0.0
 36
0.0
 17
0.0
 27
1.0
 37
0.0
 76
     0
330
1F
331
29
  0
MATERIAL
  5
45
102
{ACAD_REACTORS
330
43
102
}
330
43
100
AcDbMaterial
  1
ByBlock
 72
     1
 94
      127
  0
MATERIAL
  5
44
102
{ACAD_REACTORS
330
43
102
}
330
43
100
AcDbMaterial
  1
ByLayer
 72
     1
 94
      127
  0
MATERIAL
  5
46
102
{ACAD_REACTORS
330
43
102
}
330
43
100
AcDbMaterial
  1
Global
 72
     1
 94
      127
  0
MLEADERSTYLE
  5
6C
102
{ACAD_REACTORS
330
6B
102
}
330
6B
100
AcDbMLeaderStyle
179
     2
170
     2
171
     1
172
     0
 90
        2
 40
0.0
 41
0.0
173
     1
 91
-1056964608
340
14
 92
       -2
290
     1
 42
2.0
291
     1
 43
8.0
  3
Standard
341
0
 44
4.0
300

342
11
174
     1
178
     6
175
     1
176
     0
 93
-1056964608
 45
4.0
292
     0
297
     0
 46
4.0
343
0
 94
-1056964608
 47
1.0
 49
1.0
140
1.0
293
     1
141
0.0
294
     1
177
     0
142
1.0
295
     0
296
     0
143
3.75
271
     0
272
     9
273
     9
298
     0
  0
MLINESTYLE
  5
18
102
{ACAD_REACTORS
330
17
102
}
330
17
100
AcDbMlineStyle
  2
Standard
 70
     0
  3

 62
   256
 51
90.0
 52
90.0
 71
     2
 49
0.5
 62
   256
  6
BYLAYER
 49
-0.5
 62
   256
  6
BYLAYER
  0
ACDBPLACEHOLDER
  5
F
102
{ACAD_REACTORS
330
E
102
}
330
E
  0
SCALE
  5
48
102
{ACAD_REACTORS
330
47
102
}
330
47
100
AcDbScale
 70
     0
300
1:1
140
1.0
141
1.0
290
     1
  0
SCALE
  5
49
102
{ACAD_REACTORS
330
47
102
}
330
47
100
AcDbScale
 70
     0
300
1:2
140
1.0
141
2.0
290
     0
  0
SCALE
  5
4A
102
{ACAD_REACTORS
330
47
102
}
330
47
100
AcDbScale
 70
     0
300
1:4
140
1.0
141
4.0
290
     0
  0
SCALE
  5
4B
102
{ACAD_REACTORS
330
47
102
}
330
47
100
AcDbScale
 70
     0
300
1:5
140
1.0
141
5.0
290
     0
  0
SCALE
  5
4C
102
{ACAD_REACTORS
330
47
102
}
330
47
100
AcDbScale
 70
     0
300
1:8
140
1.0
141
8.0
290
     0
  0
SCALE
  5
4D
102
{ACAD_REACTORS
330
47
102
}
330
47
100
AcDbScale
 70
     0
300
1:10
140
1.0
141
10.0
290
     0
  0
SCALE
  5
4E
102
{ACAD_REACTORS
330
47
102
}
330
47
100
AcDbScale
 70
     0
300
1:16
140
1.0
141
16.0
290
     0
  0
SCALE
  5
4F
102
{ACAD_REACTORS
330
47
102
}
330
47
100
AcDbScale
 70
     0
300
1:20
140
1.0
141
20.0
290
     0
  0
SCALE
  5
50
102
{ACAD_REACTORS
330
47
102
}
330
47
100
AcDbScale
 70
     0
300
1:30
140
1.0
141
30.0
290
     0
  0
SCALE
  5
51
102
{ACAD_REACTORS
330
47
102
}
330
47
100
AcDbScale
 70
     0
300
1:40
140
1.0
141
40.0
290
     0
  0
SCALE
  5
52
102
{ACAD_REACTORS
330
47
102
}
330
47
100
AcDbScale
 70
     0
300
1:50
140
1.0
141
50.0
290
     0
  0
SCALE
  5
53
102
{ACAD_REACTORS
330
47
102
}
330
47
100
AcDbScale
 70
     0
300
1:100
140
1.0
141
100.0
290
     0
  0
SCALE
  5
54
102
{ACAD_REACTORS
330
47
102
}
330
47
100
AcDbScale
 70
     0
300
2:1
140
2.0
141
1.0
290
     0
  0
SCALE
  5
55
102
{ACAD_REACTORS
330
47
102
}
330
47
100
AcDbScale
 70
     0
300
4:1
140
4.0
141
1.0
290
     0
  0
SCALE
  5
56
102
{ACAD_REACTORS
330
47
102
}
330
47
100
AcDbScale
 70
     0
300
8:1
140
8.0
141
1.0
290
     0
  0
SCALE
  5
57
102
{ACAD_REACTORS
330
47
102
}
330
47
100
AcDbScale
 70
     0
300
10:1
140
10.0
141
1.0
290
     0
  0
SCALE
  5
58
102
{ACAD_REACTORS
330
47
102
}
330
47
100
AcDbScale
 70
     0
300
100:1
140
100.0
141
1.0
290
     0
  0
SCALE
  5
59
102
{ACAD_REACTORS
330
47
102
}
330
47
100
AcDbScale
 70
     0
300
1/128" = 1'-0"
140
0.0078125
141
12.0
290
     0
  0
SCALE
  5
5A
102
{ACAD_REACTORS
330
47
102
}
330
47
100
AcDbScale
 70
     0
300
1/64" = 1'-0"
140
0.015625
141
12.0
290
     0
  0
SCALE
  5
5B
102
{ACAD_REACTORS
330
47
102
}
330
47
100
AcDbScale
 70
     0
300
1/32" = 1'-0"
140
0.03125
141
12.0
290
     0
  0
SCALE
  5
5C
102
{ACAD_REACTORS
330
47
102
}
330
47
100
AcDbScale
 70
     0
300
1/16" = 1'-0"
140
0.0625
141
12.0
290
     0
  0
SCALE
  5
5D
102
{ACAD_REACTORS
330
47
102
}
330
47
100
AcDbScale
 70
     0
300
3/32" = 1'-0"
140
0.09375
141
12.0
290
     0
  0
SCALE
  5
5E
102
{ACAD_REACTORS
330
47
102
}
330
47
100
AcDbScale
 70
     0
300
1/8" = 1'-0"
140
0.125
141
12.0
290
     0
  0
SCALE
  5
5F
102
{ACAD_REACTORS
330
47
102
}
330
47
100
AcDbScale
 70
     0
300
3/16" = 1'-0"
140
0.1875
141
12.0
290
     0
  0
SCALE
  5
60
102
{ACAD_REACTORS
330
47
102
}
330
47
100
AcDbScale
 70
     0
300
1/4" = 1'-0"
140
0.25
141
12.0
290
     0
  0
SCALE
  5
61
102
{ACAD_REACTORS
330
47
102
}
330
47
100
AcDbScale
 70
     0
300
3/8" = 1'-0"
140
0.375
141
12.0
290
     0
  0
SCALE
  5
62
102
{ACAD_REACTORS
330
47
102
}
330
47
100
AcDbScale
 70
     0
300
1/2" = 1'-0"
140
0.5
141
12.0
290
     0
  0
SCALE
  5
63
102
{ACAD_REACTORS
330
47
102
}
330
47
100
AcDbScale
 70
     0
300
3/4" = 1'-0"
140
0.75
141
12.0
290
     0
  0
SCALE
  5
64
102
{ACAD_REACTORS
330
47
102
}
330
47
100
AcDbScale
 70
     0
300
1" = 1'-0"
140
1.0
141
12.0
290
     0
  0
SCALE
  5
65
102
{ACAD_REACTORS
330
47
102
}
330
47
100
AcDbScale
 70
     0
300
1-1/2" = 1'-0"
140
1.5
141
12.0
290
     0
  0
SCALE
  5
66
102
{ACAD_REACTORS
330
47
102
}
330
47
100
AcDbScale
 70
     0
300
3" = 1'-0"
140
3.0
141
12.0
290
     0
  0
SCALE
  5
67
102
{ACAD_REACTORS
330
47
102
}
330
47
100
AcDbScale
 70
     0
300
6" = 1'-0"
140
6.0
141
12.0
290
     0
  0
SCALE
  5
68
102
{ACAD_REACTORS
330
47
102
}
330
47
100
AcDbScale
 70
     0
300
1'-0" = 1'-0"
140
12.0
141
12.0
290
     0
  0
TABLESTYLE
  5
6A
102
{ACAD_REACTORS
330
69
102
}
102
{ACAD_XDICTIONARY
360
B6
102
}
330
69
100
AcDbTableStyle
  3
Standard
 70
     0
 71
     0
 40
0.06
 41
0.06
280
     0
281
     0
  7
Standard
140
4.5
170
     2
 62
     0
 63
   257
283
     0
 90
        4
 91
        0
  1

274
    -2
284
     1
 64
     0
275
    -2
285
     1
 65
     0
276
    -2
286
     1
 66
     0
277
    -2
287
     1
 67
     0
278
    -2
288
     1
 68
     0
279
    -2
289
     1
 69
     0
  7
Standard
140
6.0
170
     5
 62
     0
 63
   257
283
     0
 90
        4
 91
        0
  1

274
    -2
284
     1
 64
     0
275
    -2
285
     1
 65
     0
276
    -2
286
     1
 66
     0
277
    -2
287
     1
 67
     0
278
    -2
288
     1
 68
     0
279
    -2
289
     1
 69
     0
  7
Standard
140
4.5
170
     5
 62
     0
 63
   257
283
     0
 90
        4
 91
        0
  1

274
    -2
284
     1
 64
     0
275
    -2
285
     1
 65
     0
276
    -2
286
     1
 66
     0
277
    -2
287
     1
 67
     0
278
    -2
288
     1
 68
     0
279
    -2
289
     1
 69
     0
  0
VISUALSTYLE
  5
2F
102
{ACAD_REACTORS
330
2A
102
}
330
2A
100
AcDbVisualStyle
  2
2dWireframe
 70
     4
177
     3
291
     0
 70
    58
 90
        0
176
     1
 90
        2
176
     1
 90
        0
176
     1
 90
        0
176
     1
 40
0.6
176
     1
 40
30.0
176
     1
 62
     7
420
 16777215
176
     1
 90
        1
176
     1
 90
        4
176
     1
 62
     7
176
     1
 62
   257
176
     1
 90
        1
176
     1
 90
        1
176
     1
 40
1.0
176
     1
 90
        0
176
     1
 62
   257
176
     1
 40
1.0
176
     1
 90
        1
176
     1
 90
        6
176
     1
 90
        2
176
     1
 62
     7
176
     1
 90
        5
176
     1
 90
        0
176
     1
 90
        0
176
     1
290
     0
176
     1
 90
        1
176
     1
 40
0.0
176
     1
 90
        0
176
     1
290
     1
176
     1
290
     1
176
     1
290
     0
176
     1
290
     0
176
     1
290
     0
176
     1
290
     0
176
     1
290
     0
176
     1
290
     0
176
     1
290
     0
176
     1
 90
       50
176
     1
 40
0.0
176
     1
 40
1.0
176
     1
 90
        0
176
     1
 62
    18
420
        0
176
     1
 90
       50
176
     1
 90
        3
176
     1
 62
     5
420
      255
176
     1
290
     0
176
     1
 90
       50
176
     1
 90
       50
176
     1
 90
       50
176
     1
290
     0
176
     1
 90
       50
176
     1
 62
   256
176
     0
 40
1.0
176
     0
 90
        2
176
     1
  1
strokes_ogs.tif
176
     1
290
     0
176
     1
 40
1.0
176
     1
 40
1.0
176
     1
  0
VISUALSTYLE
  5
32
102
{ACAD_REACTORS
330
2A
102
}
330
2A
100
AcDbVisualStyle
  2
Basic
 70
     7
177
     3
291
     1
 70
    58
 90
        1
176
     1
 90
        0
176
     1
 90
        1
176
     1
 90
        0
176
     1
 40
0.6
176
     1
 40
30.0
176
     1
 62
     7
420
 16777215
176
     1
 90
        0
176
     1
 90
        4
176
     1
 62
     7
176
     1
 62
   257
176
     1
 90
        1
176
     1
 90
        1
176
     1
 40
1.0
176
     1
 90
        8
176
     1
 62
     7
176
     1
 40
1.0
176
     1
 90
        1
176
     1
 90
        6
176
     1
 90
        2
176
     1
 62
     7
176
     1
 90
        5
176
     1
 90
        0
176
     1
 90
        0
176
     1
290
     0
176
     1
 90
        1
176
     1
 40
0.0
176
     1
 90
        0
176
     1
290
     0
176
     1
290
     1
176
     1
290
     1
176
     1
290
     0
176
     1
290
     0
176
     1
290
     0
176
     1
290
     0
176
     1
290
     0
176
     1
290
     0
176
     1
 90
       50
176
     1
 40
0.0
176
     1
 40
1.0
176
     1
 90
        0
176
     1
 62
    18
420
        0
176
     1
 90
       50
176
     1
 90
        3
176
     1
 62
     5
420
      255
176
     1
290
     0
176
     1
 90
       50
176
     1
 90
       50
176
     1
 90
       50
176
     1
290
     0
176
     1
 90
       50
176
     1
 62
   256
176
     0
 40
1.0
176
     0
 90
        2
176
     1
  1
strokes_ogs.tif
176
     1
290
     0
176
     1
 40
1.0
176
     1
 40
1.0
176
     1
  0
VISUALSTYLE
  5
36
102
{ACAD_REACTORS
330
2A
102
}
330
2A
100
AcDbVisualStyle
  2
Brighten
 70
    12
177
     3
291
     1
 70
    58
 90
        2
176
     1
 90
        2
176
     1
 90
        0
176
     1
 90
        0
176
     1
 40
0.6
176
     1
 40
30.0
176
     1
 62
     7
420
 16777215
176
     1
 90
        1
176
     1
 90
        4
176
     1
 62
     7
176
     1
 62
   257
176
     1
 90
        1
176
     1
 90
        1
176
     1
 40
1.0
176
     1
 90
        8
176
     1
 62
     7
176
     1
 40
1.0
176
     1
 90
        1
176
     1
 90
        6
176
     1
 90
        2
176
     1
 62
     7
176
     1
 90
        5
176
     1
 90
        0
176
     1
 90
        0
176
     1
290
     0
176
     1
 90
        1
176
     1
 40
50.0
176
     1
 90
        0
176
     1
290
     0
176
     1
290
     1
176
     1
290
     1
176
     1
290
     0
176
     1
290
     0
176
     1
290
     0
176
     1
290
     0
176
     1
290
     0
176
     1
290
     0
176
     1
 90
       50
176
     1
 40
0.0
176
     1
 40
1.0
176
     1
 90
        0
176
     1
 62
    18
420
        0
176
     1
 90
       50
176
     1
 90
        3
176
     1
 62
     5
420
      255
176
     1
290
     0
176
     1
 90
       50
176
     1
 90
       50
176
     1
 90
       50
176
     1
290
     0
176
     1
 90
       50
176
     1
 62
   256
176
     0
 40
1.0
176
     0
 90
        2
176
     1
  1
strokes_ogs.tif
176
     1
290
     0
176
     1
 40
1.0
176
     1
 40
1.0
176
     1
  0
VISUALSTYLE
  5
3A
102
{ACAD_REACTORS
330
2A
102
}
330
2A
100
AcDbVisualStyle
  2
ColorChange
 70
    16
177
     3
291
     1
 70
    58
 90
        2
176
     1
 90
        2
176
     1
 90
        3
176
     1
 90
        0
176
     1
 40
0.6
176
     1
 40
30.0
176
     1
 62
     8
420
  8421504
176
     1
 90
        1
176
     1
 90
        4
176
     1
 62
     7
176
     1
 62
   257
176
     1
 90
        1
176
     1
 90
        1
176
     1
 40
1.0
176
     1
 90
        8
176
     1
 62
     8
420
  8421504
176
     1
 40
1.0
176
     1
 90
        1
176
     1
 90
        6
176
     1
 90
        2
176
     1
 62
     7
176
     1
 90
        5
176
     1
 90
        0
176
     1
 90
        0
176
     1
290
     0
176
     1
 90
        1
176
     1
 40
0.0
176
     1
 90
        0
176
     1
290
     0
176
     1
290
     1
176
     1
290
     1
176
     1
290
     0
176
     1
290
     0
176
     1
290
     0
176
     1
290
     0
176
     1
290
     0
176
     1
290
     0
176
     1
 90
       50
176
     1
 40
0.0
176
     1
 40
1.0
176
     1
 90
        0
176
     1
 62
    18
420
        0
176
     1
 90
       50
176
     1
 90
        3
176
     1
 62
     5
420
      255
176
     1
290
     0
176
     1
 90
       50
176
     1
 90
       50
176
     1
 90
       50
176
     1
290
     0
176
     1
 90
       50
176
     1
 62
   256
176
     0
 40
1.0
176
     0
 90
        2
176
     1
  1
strokes_ogs.tif
176
     1
290
     0
176
     1
 40
1.0
176
     1
 40
1.0
176
     1
  0
VISUALSTYLE
  5
34
102
{ACAD_REACTORS
330
2A
102
}
330
2A
100
AcDbVisualStyle
  2
Conceptual
 70
     9
177
     3
291
     0
 70
    58
 90
        3
176
     1
 90
        2
176
     1
 90
        0
176
     1
 90
        0
176
     1
 40
0.6
176
     1
 40
30.0
176
     1
 62
     7
420
 16777215
176
     1
 90
        2
176
     1
 90
        2
176
     1
 62
     7
176
     1
 62
   257
176
     1
 90
        1
176
     1
 90
        1
176
     1
 40
179.0
176
     1
 90
        8
176
     1
 62
     7
176
     1
 40
1.0
176
     1
 90
        1
176
     1
 90
        6
176
     1
 90
        2
176
     1
 62
     7
176
     1
 90
        3
176
     1
 90
        0
176
     1
 90
        0
176
     1
290
     0
176
     1
 90
        1
176
     1
 40
0.0
176
     1
 90
        0
176
     1
290
     0
176
     1
290
     1
176
     1
290
     1
176
     1
290
     0
176
     1
290
     0
176
     1
290
     0
176
     1
290
     0
176
     1
290
     0
176
     1
290
     0
176
     1
 90
       50
176
     1
 40
0.0
176
     1
 40
1.0
176
     1
 90
        0
176
     1
 62
    18
420
        0
176
     1
 90
       50
176
     1
 90
        3
176
     1
 62
     5
420
      255
176
     1
290
     0
176
     1
 90
       50
176
     1
 90
       50
176
     1
 90
       50
176
     1
290
     0
176
     1
 90
       50
176
     1
 62
   256
176
     0
 40
1.0
176
     0
 90
        2
176
     1
  1
strokes_ogs.tif
176
     1
290
     0
176
     1
 40
1.0
176
     1
 40
1.0
176
     1
  0
VISUALSTYLE
  5
35
102
{ACAD_REACTORS
330
2A
102
}
330
2A
100
AcDbVisualStyle
  2
Dim
 70
    11
177
     3
291
     1
 70
    58
 90
        2
176
     1
 90
        2
176
     1
 90
        0
176
     1
 90
        0
176
     1
 40
0.6
176
     1
 40
30.0
176
     1
 62
     7
420
 16777215
176
     1
 90
        1
176
     1
 90
        4
176
     1
 62
     7
176
     1
 62
   257
176
     1
 90
        1
176
     1
 90
        1
176
     1
 40
1.0
176
     1
 90
        8
176
     1
 62
     7
176
     1
 40
1.0
176
     1
 90
        1
176
     1
 90
        6
176
     1
 90
        2
176
     1
 62
     7
176
     1
 90
        5
176
     1
 90
        0
176
     1
 90
        0
176
     1
290
     0
176
     1
 90
        1
176
     1
 40
-50.0
176
     1
 90
        0
176
     1
290
     0
176
     1
290
     1
176
     1
290
     1
176
     1
290
     0
176
     1
290
     0
176
     1
290
     0
176
     1
290
     0
176
     1
290
     0
176
     1
290
     0
176
     1
 90
       50
176
     1
 40
0.0
176
     1
 40
1.0
176
     1
 90
        0
176
     1
 62
    18
420
        0
176
     1
 90
       50
176
     1
 90
        3
176
     1
 62
     5
420
      255
176
     1
290
     0
176
     1
 90
       50
176
     1
 90
       50
176
     1
 90
       50
176
     1
290
     0
176
     1
 90
       50
176
     1
 62
   256
176
     0
 40
1.0
176
     0
 90
        2
176
     1
  1
strokes_ogs.tif
176
     1
290
     0
176
     1
 40
1.0
176
     1
 40
1.0
176
     1
  0
VISUALSTYLE
  5
3D
102
{ACAD_REACTORS
330
2A
102
}
330
2A
100
AcDbVisualStyle
  2
EdgeColorOff
 70
    22
177
     3
291
     1
 70
    58
 90
        2
176
     0
 90
        2
176
     0
 90
        0
176
     0
 90
        0
176
     0
 40
0.6
176
     0
 40
30.0
176
     0
 62
     7
420
 16777215
176
     0
 90
        1
176
     0
 90
        4
176
     0
 62
     7
176
     0
 62
   257
176
     0
 90
        1
176
     0
 90
        1
176
     0
 40
1.0
176
     0
 90
        8
176
     2
 62
     7
176
     0
 40
1.0
176
     0
 90
        1
176
     0
 90
        6
176
     0
 90
        2
176
     0
 62
     7
176
     0
 90
        5
176
     0
 90
        0
176
     0
 90
        0
176
     0
290
     0
176
     0
 90
        1
176
     0
 40
0.0
176
     0
 90
        0
176
     0
290
     0
176
     0
290
     1
176
     0
290
     1
176
     0
290
     0
176
     0
290
     0
176
     0
290
     0
176
     0
290
     0
176
     0
290
     0
176
     0
290
     0
176
     0
 90
       50
176
     0
 40
0.0
176
     0
 40
1.0
176
     0
 90
        0
176
     0
 62
    18
420
        0
176
     0
 90
       50
176
     0
 90
        3
176
     0
 62
     5
420
      255
176
     0
290
     0
176
     0
 90
       50
176
     0
 90
       50
176
     0
 90
       50
176
     0
290
     0
176
     0
 90
       50
176
     0
 62
   256
176
     0
 40
1.0
176
     0
 90
        2
176
     0
  1
strokes_ogs.tif
176
     0
290
     0
176
     0
 40
1.0
176
     0
 40
1.0
176
     0
  0
VISUALSTYLE
  5
39
102
{ACAD_REACTORS
330
2A
102
}
330
2A
100
AcDbVisualStyle
  2
Facepattern
 70
    15
177
     3
291
     1
 70
    58
 90
        2
176
     1
 90
        2
176
     1
 90
        0
176
     1
 90
        0
176
     1
 40
0.6
176
     1
 40
30.0
176
     1
 62
     7
420
 16777215
176
     1
 90
        1
176
     1
 90
        4
176
     1
 62
     7
176
     1
 62
   257
176
     1
 90
        1
176
     1
 90
        1
176
     1
 40
1.0
176
     1
 90
        8
176
     1
 62
     7
176
     1
 40
1.0
176
     1
 90
        1
176
     1
 90
        6
176
     1
 90
        2
176
     1
 62
     7
176
     1
 90
        5
176
     1
 90
        0
176
     1
 90
        0
176
     1
290
     0
176
     1
 90
        1
176
     1
 40
0.0
176
     1
 90
        0
176
     1
290
     0
176
     1
290
     1
176
     1
290
     1
176
     1
290
     0
176
     1
290
     0
176
     1
290
     0
176
     1
290
     0
176
     1
290
     0
176
     1
290
     0
176
     1
 90
       50
176
     1
 40
0.0
176
     1
 40
1.0
176
     1
 90
        0
176
     1
 62
    18
420
        0
176
     1
 90
       50
176
     1
 90
        3
176
     1
 62
     5
420
      255
176
     1
290
     0
176
     1
 90
       50
176
     1
 90
       50
176
     1
 90
       50
176
     1
290
     0
176
     1
 90
       50
176
     1
 62
   256
176
     0
 40
1.0
176
     0
 90
        2
176
     1
  1
strokes_ogs.tif
176
     1
290
     0
176
     1
 40
1.0
176
     1
 40
1.0
176
     1
  0
VISUALSTYLE
  5
2B
102
{ACAD_REACTORS
330
2A
102
}
330
2A
100
AcDbVisualStyle
  2
Flat
 70
     0
177
     3
291
     1
 70
    58
 90
        2
176
     1
 90
        1
176
     1
 90
        1
176
     1
 90
        2
176
     1
 40
0.6
176
     1
 40
30.0
176
     1
 62
     7
420
 16777215
176
     1
 90
        0
176
     1
 90
        0
176
     1
 62
     7
176
     1
 62
   257
176
     1
 90
        1
176
     1
 90
        1
176
     1
 40
1.0
176
     1
 90
        8
176
     1
 62
     7
176
     1
 40
1.0
176
     1
 90
        1
176
     1
 90
        6
176
     1
 90
        2
176
     1
 62
     7
176
     1
 90
        5
176
     1
 90
        0
176
     1
 90
        0
176
     1
290
     0
176
     1
 90
       13
176
     1
 40
0.0
176
     1
 90
        0
176
     1
290
     0
176
     1
290
     1
176
     1
290
     1
176
     1
290
     0
176
     1
290
     0
176
     1
290
     0
176
     1
290
     0
176
     1
290
     0
176
     1
290
     0
176
     1
 90
       50
176
     1
 40
0.0
176
     1
 40
1.0
176
     1
 90
        0
176
     1
 62
    18
420
        0
176
     1
 90
       50
176
     1
 90
        3
176
     1
 62
     5
420
      255
176
     1
290
     0
176
     1
 90
       50
176
     1
 90
       50
176
     1
 90
       50
176
     1
290
     0
176
     1
 90
       50
176
     1
 62
   256
176
     0
 40
1.0
176
     0
 90
        2
176
     1
  1
strokes_ogs.tif
176
     1
290
     0
176
     1
 40
1.0
176
     1
 40
1.0
176
     1
  0
VISUALSTYLE
  5
2C
102
{ACAD_REACTORS
330
2A
102
}
330
2A
100
AcDbVisualStyle
  2
FlatWithEdges
 70
     1
177
     3
291
     1
 70
    58
 90
        2
176
     1
 90
        1
176
     1
 90
        1
176
     1
 90
        2
176
     1
 40
0.6
176
     1
 40
30.0
176
     1
 62
     7
420
 16777215
176
     1
 90
        1
176
     1
 90
        0
176
     1
 62
     7
176
     1
 62
   257
176
     1
 90
        1
176
     1
 90
        1
176
     1
 40
1.0
176
     1
 90
        0
176
     1
 62
   257
176
     1
 40
1.0
176
     1
 90
        1
176
     1
 90
        6
176
     1
 90
        2
176
     1
 62
     7
176
     1
 90
        5
176
     1
 90
        0
176
     1
 90
        0
176
     1
290
     0
176
     1
 90
       13
176
     1
 40
0.0
176
     1
 90
        0
176
     1
290
     0
176
     1
290
     1
176
     1
290
     1
176
     1
290
     0
176
     1
290
     0
176
     1
290
     0
176
     1
290
     0
176
     1
290
     0
176
     1
290
     0
176
     1
 90
       50
176
     1
 40
0.0
176
     1
 40
1.0
176
     1
 90
        0
176
     1
 62
    18
420
        0
176
     1
 90
       50
176
     1
 90
        3
176
     1
 62
     5
420
      255
176
     1
290
     0
176
     1
 90
       50
176
     1
 90
       50
176
     1
 90
       50
176
     1
290
     0
176
     1
 90
       50
176
     1
 62
   256
176
     0
 40
1.0
176
     0
 90
        2
176
     1
  1
strokes_ogs.tif
176
     1
290
     0
176
     1
 40
1.0
176
     1
 40
1.0
176
     1
  0
VISUALSTYLE
  5
2D
102
{ACAD_REACTORS
330
2A
102
}
330
2A
100
AcDbVisualStyle
  2
Gouraud
 70
     2
177
     3
291
     1
 70
    58
 90
        2
176
     1
 90
        2
176
     1
 90
        1
176
     1
 90
        2
176
     1
 40
0.6
176
     1
 40
30.0
176
     1
 62
     7
420
 16777215
176
     1
 90
        0
176
     1
 90
        0
176
     1
 62
     7
176
     1
 62
   257
176
     1
 90
        1
176
     1
 90
        1
176
     1
 40
1.0
176
     1
 90
        0
176
     1
 62
     7
176
     1
 40
1.0
176
     1
 90
        1
176
     1
 90
        6
176
     1
 90
        2
176
     1
 62
     7
176
     1
 90
        5
176
     1
 90
        0
176
     1
 90
        0
176
     1
290
     0
176
     1
 90
       13
176
     1
 40
0.0
176
     1
 90
        0
176
     1
290
     0
176
     1
290
     1
176
     1
290
     1
176
     1
290
     0
176
     1
290
     0
176
     1
290
     0
176
     1
290
     0
176
     1
290
     0
176
     1
290
     0
176
     1
 90
       50
176
     1
 40
0.0
176
     1
 40
1.0
176
     1
 90
        0
176
     1
 62
    18
420
        0
176
     1
 90
       50
176
     1
 90
        3
176
     1
 62
     5
420
      255
176
     1
290
     0
176
     1
 90
       50
176
     1
 90
       50
176
     1
 90
       50
176
     1
290
     0
176
     1
 90
       50
176
     1
 62
   256
176
     0
 40
1.0
176
     0
 90
        2
176
     1
  1
strokes_ogs.tif
176
     1
290
     0
176
     1
 40
1.0
176
     1
 40
1.0
176
     1
  0
VISUALSTYLE
  5
2E
102
{ACAD_REACTORS
330
2A
102
}
330
2A
100
AcDbVisualStyle
  2
GouraudWithEdges
 70
     3
177
     3
291
     1
 70
    58
 90
        2
176
     1
 90
        2
176
     1
 90
        1
176
     1
 90
        2
176
     1
 40
0.6
176
     1
 40
30.0
176
     1
 62
     7
420
 16777215
176
     1
 90
        1
176
     1
 90
        0
176
     1
 62
     7
176
     1
 62
   257
176
     1
 90
        1
176
     1
 90
        1
176
     1
 40
1.0
176
     1
 90
        0
176
     1
 62
   257
176
     1
 40
1.0
176
     1
 90
        1
176
     1
 90
        6
176
     1
 90
        2
176
     1
 62
     7
176
     1
 90
        5
176
     1
 90
        0
176
     1
 90
        0
176
     1
290
     0
176
     1
 90
       13
176
     1
 40
0.0
176
     1
 90
        0
176
     1
290
     0
176
     1
290
     1
176
     1
290
     1
176
     1
290
     0
176
     1
290
     0
176
     1
290
     0
176
     1
290
     0
176
     1
290
     0
176
     1
290
     0
176
     1
 90
       50
176
     1
 40
0.0
176
     1
 40
1.0
176
     1
 90
        0
176
     1
 62
    18
420
        0
176
     1
 90
       50
176
     1
 90
        3
176
     1
 62
     5
420
      255
176
     1
290
     0
176
     1
 90
       50
176
     1
 90
       50
176
     1
 90
       50
176
     1
290
     0
176
     1
 90
       50
176
     1
 62
   256
176
     0
 40
1.0
176
     0
 90
        2
176
     1
  1
strokes_ogs.tif
176
     1
290
     0
176
     1
 40
1.0
176
     1
 40
1.0
176
     1
  0
VISUALSTYLE
  5
31
102
{ACAD_REACTORS
330
2A
102
}
330
2A
100
AcDbVisualStyle
  2
Hidden
 70
     6
177
     3
291
     0
 70
    58
 90
        1
176
     1
 90
        2
176
     1
 90
        2
176
     1
 90
        0
176
     1
 40
0.6
176
     1
 40
30.0
176
     1
 62
     7
420
 16777215
176
     1
 90
        2
176
     1
 90
        2
176
     1
 62
     7
176
     1
 62
   257
176
     1
 90
        2
176
     1
 90
        1
176
     1
 40
40.0
176
     1
 90
        0
176
     1
 62
   257
176
     1
 40
1.0
176
     1
 90
        1
176
     1
 90
        6
176
     1
 90
        2
176
     1
 62
     7
176
     1
 90
        3
176
     1
 90
        0
176
     1
 90
        0
176
     1
290
     0
176
     1
 90
        1
176
     1
 40
0.0
176
     1
 90
        0
176
     1
290
     0
176
     1
290
     1
176
     1
290
     1
176
     1
290
     0
176
     1
290
     0
176
     1
290
     0
176
     1
290
     0
176
     1
290
     0
176
     1
290
     0
176
     1
 90
       50
176
     1
 40
0.0
176
     1
 40
1.0
176
     1
 90
        0
176
     1
 62
    18
420
        0
176
     1
 90
       50
176
     1
 90
        3
176
     1
 62
     5
420
      255
176
     1
290
     0
176
     1
 90
       50
176
     1
 90
       50
176
     1
 90
       50
176
     1
290
     0
176
     1
 90
       50
176
     1
 62
   256
176
     0
 40
1.0
176
     0
 90
        2
176
     1
  1
strokes_ogs.tif
176
     1
290
     0
176
     1
 40
1.0
176
     1
 40
1.0
176
     1
  0
VISUALSTYLE
  5
3B
102
{ACAD_REACTORS
330
2A
102
}
330
2A
100
AcDbVisualStyle
  2
JitterOff
 70
    20
177
     3
291
     1
 70
    58
 90
        2
176
     0
 90
        2
176
     0
 90
        0
176
     0
 90
        0
176
     0
 40
0.6
176
     0
 40
30.0
176
     0
 62
     7
420
 16777215
176
     0
 90
        1
176
     0
 90
        4
176
     0
 62
     7
176
     0
 62
   257
176
     0
 90
        1
176
     0
 90
        1
176
     0
 40
1.0
176
     0
 90
       10
176
     2
 62
     7
176
     0
 40
1.0
176
     0
 90
        1
176
     0
 90
        6
176
     0
 90
        2
176
     0
 62
     7
176
     0
 90
        5
176
     0
 90
        0
176
     0
 90
        0
176
     0
290
     0
176
     0
 90
        1
176
     0
 40
0.0
176
     0
 90
        0
176
     0
290
     0
176
     0
290
     1
176
     0
290
     1
176
     0
290
     0
176
     0
290
     0
176
     0
290
     0
176
     0
290
     0
176
     0
290
     0
176
     0
290
     0
176
     0
 90
       50
176
     0
 40
0.0
176
     0
 40
1.0
176
     0
 90
        0
176
     0
 62
    18
420
        0
176
     0
 90
       50
176
     0
 90
        3
176
     0
 62
     5
420
      255
176
     0
290
     0
176
     0
 90
       50
176
     0
 90
       50
176
     0
 90
       50
176
     0
290
     0
176
     0
 90
       50
176
     0
 62
   256
176
     0
 40
1.0
176
     0
 90
        2
176
     0
  1
strokes_ogs.tif
176
     0
290
     0
176
     0
 40
1.0
176
     0
 40
1.0
176
     0
  0
VISUALSTYLE
  5
38
102
{ACAD_REACTORS
330
2A
102
}
330
2A
100
AcDbVisualStyle
  2
Linepattern
 70
    14
177
     3
291
     1
 70
    58
 90
        2
176
     1
 90
        2
176
     1
 90
        0
176
     1
 90
        0
176
     1
 40
0.6
176
     1
 40
30.0
176
     1
 62
     7
420
 16777215
176
     1
 90
        1
176
     1
 90
        4
176
     1
 62
     7
176
     1
 62
   257
176
     1
 90
        7
176
     1
 90
        7
176
     1
 40
1.0
176
     1
 90
        8
176
     1
 62
     7
176
     1
 40
1.0
176
     1
 90
        1
176
     1
 90
        6
176
     1
 90
        2
176
     1
 62
     7
176
     1
 90
        5
176
     1
 90
        0
176
     1
 90
        0
176
     1
290
     0
176
     1
 90
        1
176
     1
 40
0.0
176
     1
 90
        0
176
     1
290
     0
176
     1
290
     1
176
     1
290
     1
176
     1
290
     0
176
     1
290
     0
176
     1
290
     0
176
     1
290
     0
176
     1
290
     0
176
     1
290
     0
176
     1
 90
       50
176
     1
 40
0.0
176
     1
 40
1.0
176
     1
 90
        0
176
     1
 62
    18
420
        0
176
     1
 90
       50
176
     1
 90
        3
176
     1
 62
     5
420
      255
176
     1
290
     0
176
     1
 90
       50
176
     1
 90
       50
176
     1
 90
       50
176
     1
290
     0
176
     1
 90
       50
176
     1
 62
   256
176
     0
 40
1.0
176
     0
 90
        2
176
     1
  1
strokes_ogs.tif
176
     1
290
     0
176
     1
 40
1.0
176
     1
 40
1.0
176
     1
  0
VISUALSTYLE
  5
3C
102
{ACAD_REACTORS
330
2A
102
}
330
2A
100
AcDbVisualStyle
  2
OverhangOff
 70
    21
177
     3
291
     1
 70
    58
 90
        2
176
     0
 90
        2
176
     0
 90
        0
176
     0
 90
        0
176
     0
 40
0.6
176
     0
 40
30.0
176
     0
 62
     7
420
 16777215
176
     0
 90
        1
176
     0
 90
        4
176
     0
 62
     7
176
     0
 62
   257
176
     0
 90
        1
176
     0
 90
        1
176
     0
 40
1.0
176
     0
 90
        9
176
     2
 62
     7
176
     0
 40
1.0
176
     0
 90
        1
176
     0
 90
        6
176
     0
 90
        2
176
     0
 62
     7
176
     0
 90
        5
176
     0
 90
        0
176
     0
 90
        0
176
     0
290
     0
176
     0
 90
        1
176
     0
 40
0.0
176
     0
 90
        0
176
     0
290
     0
176
     0
290
     1
176
     0
290
     1
176
     0
290
     0
176
     0
290
     0
176
     0
290
     0
176
     0
290
     0
176
     0
290
     0
176
     0
290
     0
176
     0
 90
       50
176
     0
 40
0.0
176
     0
 40
1.0
176
     0
 90
        0
176
     0
 62
    18
420
        0
176
     0
 90
       50
176
     0
 90
        3
176
     0
 62
     5
420
      255
176
     0
290
     0
176
     0
 90
       50
176
     0
 90
       50
176
     0
 90
       50
176
     0
290
     0
176
     0
 90
       50
176
     0
 62
   256
176
     0
 40
1.0
176
     0
 90
        2
176
     0
  1
strokes_ogs.tif
176
     0
290
     0
176
     0
 40
1.0
176
     0
 40
1.0
176
     0
  0
VISUALSTYLE
  5
33
102
{ACAD_REACTORS
330
2A
102
}
330
2A
100
AcDbVisualStyle
  2
Realistic
 70
     8
177
     3
291
     0
 70
    58
 90
        2
176
     1
 90
        3
176
     1
 90
        0
176
     1
 90
        2
176
     1
 40
0.6
176
     1
 40
30.0
176
     1
 62
     7
420
 16777215
176
     1
 90
        0
176
     1
 90
        0
176
     1
 62
     7
176
     1
 62
   257
176
     1
 90
        1
176
     1
 90
        1
176
     1
 40
1.0
176
     1
 90
        8
176
     1
 62
   257
176
     1
 40
1.0
176
     1
 90
        1
176
     1
 90
        6
176
     1
 90
        2
176
     1
 62
     7
176
     1
 90
        3
176
     1
 90
        0
176
     1
 90
        0
176
     1
290
     0
176
     1
 90
       13
176
     1
 40
0.0
176
     1
 90
        0
176
     1
290
     0
176
     1
290
     1
176
     1
290
     1
176
     1
290
     0
176
     1
290
     0
176
     1
290
     0
176
     1
290
     0
176
     1
290
     0
176
     1
290
     0
176
     1
 90
       50
176
     1
 40
0.0
176
     1
 40
1.0
176
     1
 90
        0
176
     1
 62
    18
420
        0
176
     1
 90
       50
176
     1
 90
        3
176
     1
 62
     5
420
      255
176
     1
290
     0
176
     1
 90
       50
176
     1
 90
       50
176
     1
 90
       50
176
     1
290
     0
176
     1
 90
       50
176
     1
 62
   256
176
     0
 40
1.0
176
     0
 90
        2
176
     1
  1
strokes_ogs.tif
176
     1
290
     0
176
     1
 40
1.0
176
     1
 40
1.0
176
     1
  0
VISUALSTYLE
  5
42
102
{ACAD_REACTORS
330
2A
102
}
330
2A
100
AcDbVisualStyle
  2
Shaded
 70
    27
177
     3
291
     0
 70
    58
 90
        2
176
     1
 90
        2
176
     1
 90
        1
176
     1
 90
        2
176
     1
 40
0.6
176
     1
 40
30.0
176
     1
 62
     7
420
 16777215
176
     1
 90
        0
176
     1
 90
        4
176
     1
 62
     7
176
     1
 62
   257
176
     1
 90
        1
176
     1
 90
        1
176
     1
 40
1.0
176
     1
 90
        8
176
     1
 62
   257
176
     1
 40
1.0
176
     1
 90
        1
176
     1
 90
        6
176
     1
 90
        2
176
     1
 62
     8
420
  7895160
176
     1
 90
        3
176
     1
 90
        0
176
     1
 90
        0
176
     1
290
     0
176
     1
 90
        5
176
     1
 40
0.0
176
     1
 90
        0
176
     1
290
     0
176
     1
290
     1
176
     1
290
     1
176
     1
290
     0
176
     1
290
     0
176
     1
290
     0
176
     1
290
     0
176
     1
290
     0
176
     1
290
     0
176
     1
 90
       50
176
     1
 40
0.0
176
     1
 40
1.0
176
     1
 90
        0
176
     1
 62
    18
420
        0
176
     1
 90
       50
176
     1
 90
        3
176
     1
 62
     5
420
      255
176
     1
290
     0
176
     1
 90
       50
176
     1
 90
       50
176
     1
 90
       50
176
     1
290
     0
176
     1
 90
       50
176
     1
 62
   256
176
     0
 40
1.0
176
     0
 90
        2
176
     1
  1
strokes_ogs.tif
176
     1
290
     0
176
     1
 40
1.0
176
     1
 40
1.0
176
     1
  0
VISUALSTYLE
  5
41
102
{ACAD_REACTORS
330
2A
102
}
330
2A
100
AcDbVisualStyle
  2
Shaded with edges
 70
    26
177
     3
291
     0
 70
    58
 90
        2
176
     1
 90
        2
176
     1
 90
        1
176
     1
 90
        2
176
     1
 40
0.6
176
     1
 40
30.0
176
     1
 62
     7
420
 16777215
176
     1
 90
        1
176
     1
 90
       10
176
     1
 62
     7
176
     1
 62
   257
176
     1
 90
        2
176
     1
 90
        1
176
     1
 40
1.0
176
     1
 90
        8
176
     1
 62
   257
176
     1
 40
1.0
176
     1
 90
        1
176
     1
 90
        6
176
     1
 90
        2
176
     1
 62
     7
176
     1
 90
        3
176
     1
 90
        0
176
     1
 90
        0
176
     1
290
     0
176
     1
 90
        5
176
     1
 40
0.0
176
     1
 90
        0
176
     1
290
     0
176
     1
290
     1
176
     1
290
     1
176
     1
290
     0
176
     1
290
     0
176
     1
290
     0
176
     1
290
     0
176
     1
290
     0
176
     1
290
     0
176
     1
 90
       50
176
     1
 40
0.0
176
     1
 40
1.0
176
     1
 90
        0
176
     1
 62
    18
420
        0
176
     1
 90
       50
176
     1
 90
        3
176
     1
 62
     5
420
      255
176
     1
290
     0
176
     1
 90
       50
176
     1
 90
       50
176
     1
 90
       50
176
     1
290
     0
176
     1
 90
       50
176
     1
 62
   256
176
     0
 40
1.0
176
     0
 90
        2
176
     1
  1
strokes_ogs.tif
176
     1
290
     0
176
     1
 40
1.0
176
     1
 40
1.0
176
     1
  0
VISUALSTYLE
  5
3E
102
{ACAD_REACTORS
330
2A
102
}
330
2A
100
AcDbVisualStyle
  2
Shades of Gray
 70
    23
177
     3
291
     0
 70
    58
 90
        2
176
     1
 90
        2
176
     1
 90
        3
176
     1
 90
        0
176
     1
 40
0.6
176
     1
 40
30.0
176
     1
 62
     7
420
 16777215
176
     1
 90
        2
176
     1
 90
        2
176
     1
 62
     7
176
     1
 62
     7
176
     1
 90
        1
176
     1
 90
        1
176
     1
 40
40.0
176
     1
 90
        8
176
     1
 62
     7
176
     1
 40
1.0
176
     1
 90
        1
176
     1
 90
        6
176
     1
 90
        2
176
     1
 62
     7
176
     1
 90
        3
176
     1
 90
        0
176
     1
 90
        0
176
     1
290
     0
176
     1
 90
        1
176
     1
 40
0.0
176
     1
 90
        0
176
     1
290
     0
176
     1
290
     1
176
     1
290
     1
176
     1
290
     0
176
     1
290
     0
176
     1
290
     0
176
     1
290
     0
176
     1
290
     0
176
     1
290
     0
176
     1
 90
       50
176
     1
 40
0.0
176
     1
 40
1.0
176
     1
 90
        0
176
     1
 62
    18
420
        0
176
     1
 90
       50
176
     1
 90
        3
176
     1
 62
     5
420
      255
176
     1
290
     0
176
     1
 90
       50
176
     1
 90
       50
176
     1
 90
       50
176
     1
290
     0
176
     1
 90
       50
176
     1
 62
   256
176
     0
 40
1.0
176
     0
 90
        2
176
     1
  1
strokes_ogs.tif
176
     1
290
     0
176
     1
 40
1.0
176
     1
 40
1.0
176
     1
  0
VISUALSTYLE
  5
3F
102
{ACAD_REACTORS
330
2A
102
}
330
2A
100
AcDbVisualStyle
  2
Sketchy
 70
    24
177
     3
291
     0
 70
    58
 90
        1
176
     1
 90
        2
176
     1
 90
        2
176
     1
 90
        0
176
     1
 40
0.6
176
     1
 40
30.0
176
     1
 62
     7
420
 16777215
176
     1
 90
        2
176
     1
 90
        2
176
     1
 62
     7
176
     1
 62
     7
176
     1
 90
        1
176
     1
 90
        1
176
     1
 40
40.0
176
     1
 90
       11
176
     1
 62
     7
176
     1
 40
1.0
176
     1
 90
        1
176
     1
 90
        6
176
     1
 90
        2
176
     1
 62
     7
176
     1
 90
        6
176
     1
 90
        0
176
     1
 90
        0
176
     1
290
     0
176
     1
 90
        1
176
     1
 40
0.0
176
     1
 90
        0
176
     1
290
     0
176
     1
290
     1
176
     1
290
     1
176
     1
290
     0
176
     1
290
     0
176
     1
290
     0
176
     1
290
     0
176
     1
290
     0
176
     1
290
     0
176
     1
 90
       50
176
     1
 40
0.0
176
     1
 40
1.0
176
     1
 90
        0
176
     1
 62
    18
420
        0
176
     1
 90
       50
176
     1
 90
        3
176
     1
 62
     5
420
      255
176
     1
290
     0
176
     1
 90
       50
176
     1
 90
       50
176
     1
 90
       50
176
     1
290
     0
176
     1
 90
       50
176
     1
 62
   256
176
     0
 40
1.0
176
     0
 90
        2
176
     1
  1
strokes_ogs.tif
176
     1
290
     0
176
     1
 40
1.0
176
     1
 40
1.0
176
     1
  0
VISUALSTYLE
  5
37
102
{ACAD_REACTORS
330
2A
102
}
330
2A
100
AcDbVisualStyle
  2
Thicken
 70
    13
177
     3
291
     1
 70
    58
 90
        2
176
     1
 90
        2
176
     1
 90
        0
176
     1
 90
        0
176
     1
 40
0.6
176
     1
 40
30.0
176
     1
 62
     7
420
 16777215
176
     1
 90
        1
176
     1
 90
        4
176
     1
 62
     7
176
     1
 62
   257
176
     1
 90
        1
176
     1
 90
        1
176
     1
 40
1.0
176
     1
 90
       12
176
     1
 62
     7
176
     1
 40
1.0
176
     1
 90
        1
176
     1
 90
        6
176
     1
 90
        2
176
     1
 62
     7
176
     1
 90
        5
176
     1
 90
        0
176
     1
 90
        0
176
     1
290
     0
176
     1
 90
        1
176
     1
 40
0.0
176
     1
 90
        0
176
     1
290
     0
176
     1
290
     1
176
     1
290
     1
176
     1
290
     0
176
     1
290
     0
176
     1
290
     0
176
     1
290
     0
176
     1
290
     0
176
     1
290
     0
176
     1
 90
       50
176
     1
 40
0.0
176
     1
 40
1.0
176
     1
 90
        0
176
     1
 62
    18
420
        0
176
     1
 90
       50
176
     1
 90
        3
176
     1
 62
     5
420
      255
176
     1
290
     0
176
     1
 90
       50
176
     1
 90
       50
176
     1
 90
       50
176
     1
290
     0
176
     1
 90
       50
176
     1
 62
   256
176
     0
 40
1.0
176
     0
 90
        2
176
     1
  1
strokes_ogs.tif
176
     1
290
     0
176
     1
 40
1.0
176
     1
 40
1.0
176
     1
  0
VISUALSTYLE
  5
30
102
{ACAD_REACTORS
330
2A
102
}
330
2A
100
AcDbVisualStyle
  2
Wireframe
 70
     5
177
     3
291
     0
 70
    58
 90
        0
176
     1
 90
        2
176
     1
 90
        0
176
     1
 90
        0
176
     1
 40
0.6
176
     1
 40
30.0
176
     1
 62
     7
420
 16777215
176
     1
 90
        1
176
     1
 90
        4
176
     1
 62
     7
176
     1
 62
   257
176
     1
 90
        1
176
     1
 90
        1
176
     1
 40
1.0
176
     1
 90
        0
176
     1
 62
   257
176
     1
 40
1.0
176
     1
 90
        1
176
     1
 90
        6
176
     1
 90
        2
176
     1
 62
     7
176
     1
 90
        3
176
     1
 90
        0
176
     1
 90
        0
176
     1
290
     0
176
     1
 90
        1
176
     1
 40
0.0
176
     1
 90
        0
176
     1
290
     0
176
     1
290
     1
176
     1
290
     1
176
     1
290
     0
176
     1
290
     0
176
     1
290
     0
176
     1
290
     0
176
     1
290
     0
176
     1
290
     0
176
     1
 90
       50
176
     1
 40
0.0
176
     1
 40
1.0
176
     1
 90
        0
176
     1
 62
    18
420
        0
176
     1
 90
       50
176
     1
 90
        3
176
     1
 62
     5
420
      255
176
     1
290
     0
176
     1
 90
       50
176
     1
 90
       50
176
     1
 90
       50
176
     1
290
     0
176
     1
 90
       50
176
     1
 62
   256
176
     0
 40
1.0
176
     0
 90
        2
176
     1
  1
strokes_ogs.tif
176
     1
290
     0
176
     1
 40
1.0
176
     1
 40
1.0
176
     1
  0
VISUALSTYLE
  5
40
102
{ACAD_REACTORS
330
2A
102
}
330
2A
100
AcDbVisualStyle
  2
X-Ray
 70
    25
177
     3
291
     0
 70
    58
 90
        2
176
     1
 90
        2
176
     1
 90
        1
176
     1
 90
        1
176
     1
 40
0.5
176
     1
 40
30.0
176
     1
 62
     7
420
 16777215
176
     1
 90
        1
176
     1
 90
        0
176
     1
 62
     7
176
     1
 62
   257
176
     1
 90
        1
176
     1
 90
        1
176
     1
 40
1.0
176
     1
 90
        8
176
     1
 62
     7
176
     1
 40
1.0
176
     1
 90
        1
176
     1
 90
        6
176
     1
 90
        2
176
     1
 62
     7
176
     1
 90
        3
176
     1
 90
        0
176
     1
 90
        0
176
     1
290
     0
176
     1
 90
       13
176
     1
 40
0.0
176
     1
 90
        0
176
     1
290
     0
176
     1
290
     1
176
     1
290
     1
176
     1
290
     0
176
     1
290
     0
176
     1
290
     0
176
     1
290
     0
176
     1
290
     0
176
     1
290
     0
176
     1
 90
       50
176
     1
 40
0.0
176
     1
 40
1.0
176
     1
 90
        0
176
     1
 62
    18
420
        0
176
     1
 90
       50
176
     1
 90
        3
176
     1
 62
     5
420
      255
176
     1
290
     0
176
     1
 90
       50
176
     1
 90
       50
176
     1
 90
       50
176
     1
290
     0
176
     1
 90
       50
176
     1
 62
   256
176
     0
 40
1.0
176
     0
 90
        2
176
     1
  1
strokes_ogs.tif
176
     1
290
     0
176
     1
 40
1.0
176
     1
 40
1.0
176
     1
  0
DICTIONARYVAR
  5
B5
102
{ACAD_REACTORS
330
B4
102
}
330
B4
100
DictionaryVariables
280
     0
  1
1:1
  0
DICTIONARYVAR
  5
BD
102
{ACAD_REACTORS
330
B4
102
}
330
B4
100
DictionaryVariables
280
     0
  1
3.500000
  0
DICTIONARYVAR
  5
BE
102
{ACAD_REACTORS
330
B4
102
}
330
B4
100
DictionaryVariables
280
     0
  1
acadiso.lin
  0
DICTIONARYVAR
  5
BA
102
{ACAD_REACTORS
330
B4
102
}
330
B4
100
DictionaryVariables
280
     0
  1
Standard
  0
DICTIONARYVAR
  5
B9
102
{ACAD_REACTORS
330
B4
102
}
330
B4
100
DictionaryVariables
280
     0
  1
Standard
  0
DICTIONARY
  5
B6
330
6A
100
AcDbDictionary
280
     1
281
     1
  3
ACAD_ROUNDTRIP_2008_TABLESTYLE_CELLSTYLEMAP
360
B7
  0
CELLSTYLEMAP
  5
B7
102
{ACAD_REACTORS
330
B6
102
}
330
B6
100
AcDbCellStyleMap
 90
        3
300
CELLSTYLE
  1
TABLEFORMAT_BEGIN
 90
        5
170
     1
 91
        0
 92
    32768
 62
   257
 93
        1
300
CONTENTFORMAT
  1
CONTENTFORMAT_BEGIN
 90
        0
 91
        0
 92
        4
 93
        0
300

 40
0.0
140
1.0
 94
        5
 62
     0
340
11
144
6.0
309
CONTENTFORMAT_END
171
     1
301
MARGIN
  1
CELLMARGIN_BEGIN
 40
1.5
 40
1.5
 40
1.5
 40
1.5
 40
1.5
 40
1.5
309
CELLMARGIN_END
 94
        6
 95
        1
302
GRIDFORMAT
  1
GRIDFORMAT_BEGIN
 90
        0
 91
        1
 62
     0
 92
       -2
340
14
 93
        0
 40
0.045
309
GRIDFORMAT_END
 95
        2
302
GRIDFORMAT
  1
GRIDFORMAT_BEGIN
 90
        0
 91
        1
 62
     0
 92
       -2
340
14
 93
        0
 40
0.045
309
GRIDFORMAT_END
 95
        4
302
GRIDFORMAT
  1
GRIDFORMAT_BEGIN
 90
        0
 91
        1
 62
     0
 92
       -2
340
14
 93
        0
 40
0.045
309
GRIDFORMAT_END
 95
        8
302
GRIDFORMAT
  1
GRIDFORMAT_BEGIN
 90
        0
 91
        1
 62
     0
 92
       -2
340
14
 93
        0
 40
0.045
309
GRIDFORMAT_END
 95
       16
302
GRIDFORMAT
  1
GRIDFORMAT_BEGIN
 90
        0
 91
        1
 62
     0
 92
       -2
340
14
 93
        0
 40
0.045
309
GRIDFORMAT_END
 95
       32
302
GRIDFORMAT
  1
GRIDFORMAT_BEGIN
 90
        0
 91
        1
 62
     0
 92
       -2
340
14
 93
        0
 40
0.045
309
GRIDFORMAT_END
309
TABLEFORMAT_END
  1
CELLSTYLE_BEGIN
 90
        1
 91
        1
300
_TITLE
309
CELLSTYLE_END
300
CELLSTYLE
  1
TABLEFORMAT_BEGIN
 90
        5
170
     1
 91
        0
 92
        0
 62
   257
 93
        1
300
CONTENTFORMAT
  1
CONTENTFORMAT_BEGIN
 90
        0
 91
        0
 92
        4
 93
        0
300

 40
0.0
140
1.0
 94
        5
 62
     0
340
11
144
4.5
309
CONTENTFORMAT_END
171
     1
301
MARGIN
  1
CELLMARGIN_BEGIN
 40
1.5
 40
1.5
 40
1.5
 40
1.5
 40
1.5
 40
1.5
309
CELLMARGIN_END
 94
        6
 95
        1
302
GRIDFORMAT
  1
GRIDFORMAT_BEGIN
 90
        0
 91
        1
 62
     0
 92
       -2
340
14
 93
        0
 40
0.045
309
GRIDFORMAT_END
 95
        2
302
GRIDFORMAT
  1
GRIDFORMAT_BEGIN
 90
        0
 91
        1
 62
     0
 92
       -2
340
14
 93
        0
 40
0.045
309
GRIDFORMAT_END
 95
        4
302
GRIDFORMAT
  1
GRIDFORMAT_BEGIN
 90
        0
 91
        1
 62
     0
 92
       -2
340
14
 93
        0
 40
0.045
309
GRIDFORMAT_END
 95
        8
302
GRIDFORMAT
  1
GRIDFORMAT_BEGIN
 90
        0
 91
        1
 62
     0
 92
       -2
340
14
 93
        0
 40
0.045
309
GRIDFORMAT_END
 95
       16
302
GRIDFORMAT
  1
GRIDFORMAT_BEGIN
 90
        0
 91
        1
 62
     0
 92
       -2
340
14
 93
        0
 40
0.045
309
GRIDFORMAT_END
 95
       32
302
GRIDFORMAT
  1
GRIDFORMAT_BEGIN
 90
        0
 91
        1
 62
     0
 92
       -2
340
14
 93
        0
 40
0.045
309
GRIDFORMAT_END
309
TABLEFORMAT_END
  1
CELLSTYLE_BEGIN
 90
        2
 91
        1
300
_HEADER
309
CELLSTYLE_END
300
CELLSTYLE
  1
TABLEFORMAT_BEGIN
 90
        5
170
     1
 91
        0
 92
        0
 62
   257
 93
        1
300
CONTENTFORMAT
  1
CONTENTFORMAT_BEGIN
 90
        0
 91
        0
 92
        4
 93
        0
300

 40
0.0
140
1.0
 94
        2
 62
     0
340
11
144
4.5
309
CONTENTFORMAT_END
171
     1
301
MARGIN
  1
CELLMARGIN_BEGIN
 40
1.5
 40
1.5
 40
1.5
 40
1.5
 40
1.5
 40
1.5
309
CELLMARGIN_END
 94
        6
 95
        1
302
GRIDFORMAT
  1
GRIDFORMAT_BEGIN
 90
        0
 91
        1
 62
     0
 92
       -2
340
14
 93
        0
 40
0.045
309
GRIDFORMAT_END
 95
        2
302
GRIDFORMAT
  1
GRIDFORMAT_BEGIN
 90
        0
 91
        1
 62
     0
 92
       -2
340
14
 93
        0
 40
0.045
309
GRIDFORMAT_END
 95
        4
302
GRIDFORMAT
  1
GRIDFORMAT_BEGIN
 90
        0
 91
        1
 62
     0
 92
       -2
340
14
 93
        0
 40
0.045
309
GRIDFORMAT_END
 95
        8
302
GRIDFORMAT
  1
GRIDFORMAT_BEGIN
 90
        0
 91
        1
 62
     0
 92
       -2
340
14
 93
        0
 40
0.045
309
GRIDFORMAT_END
 95
       16
302
GRIDFORMAT
  1
GRIDFORMAT_BEGIN
 90
        0
 91
        1
 62
     0
 92
       -2
340
14
 93
        0
 40
0.045
309
GRIDFORMAT_END
 95
       32
302
GRIDFORMAT
  1
GRIDFORMAT_BEGIN
 90
        0
 91
        1
 62
     0
 92
       -2
340
14
 93
        0
 40
0.045
309
GRIDFORMAT_END
309
TABLEFORMAT_END
  1
CELLSTYLE_BEGIN
 90
        3
 91
        2
300
_DATA
309
CELLSTYLE_END
  0
ENDSEC
  0
EOF
