  0
SECTION
  2
HEADER
  9
$ACADVER
  1
AC1027
  9
$ACADMAINTVER
 70
   105
  9
$DWGCODEPAGE
  3
ANSI_1252
  9
$REQUIREDVERSIONS
160
                 0
  9
$INSBASE
 10
0.0
 20
0.0
 30
0.0
  9
$EXTMIN
 10
1.000000000000000E+20
 20
1.000000000000000E+20
 30
1.000000000000000E+20
  9
$EXTMAX
 10
-1.000000000000000E+20
 20
-1.000000000000000E+20
 30
-1.000000000000000E+20
  9
$LIMMIN
 10
0.0
 20
0.0
  9
$LIMMAX
 10
420.0
 20
297.0
  9
$ORTHOMODE
 70
     0
  9
$REGENMODE
 70
     1
  9
$FILLMODE
 70
     1
  9
$QTEXTMODE
 70
     0
  9
$MIRRTEXT
 70
     1
  9
$LTSCALE
 40
1.0
  9
$ATTMODE
 70
     1
  9
$TEXTSIZE
 40
2.5
  9
$TRACEWID
 40
1.0
  9
$TEXTSTYLE
  7
Standard
  9
$CLAYER
  8
0
  9
$CELTYPE
  6
ByLayer
  9
$CECOLOR
 62
   256
  9
$CELTSCALE
 40
1.0
  9
$DISPSILH
 70
     0
  9
$DIMSCALE
 40
1.0
  9
$DIMASZ
 40
2.5
  9
$DIMEXO
 40
0.625
  9
$DIMDLI
 40
3.75
  9
$DIMRND
 40
0.0
  9
$DIMDLE
 40
0.0
  9
$DIMEXE
 40
1.25
  9
$DIMTP
 40
0.0
  9
$DIMTM
 40
0.0
  9
$DIMTXT
 40
2.5
  9
$DIMCEN
 40
2.5
  9
$DIMTSZ
 40
0.0
  9
$DIMTOL
 70
     0
  9
$DIMLIM
 70
     0
  9
$DIMTIH
 70
     0
  9
$DIMTOH
 70
     0
  9
$DIMSE1
 70
     0
  9
$DIMSE2
 70
     0
  9
$DIMTAD
 70
     1
  9
$DIMZIN
 70
     8
  9
$DIMBLK
  1

  9
$DIMASO
 70
     1
  9
$DIMSHO
 70
     1
  9
$DIMPOST
  1

  9
$DIMAPOST
  1

  9
$DIMALT
 70
     0
  9
$DIMALTD
 70
     3
  9
$DIMALTF
 40
0.03937007874016
  9
$DIMLFAC
 40
1.0
  9
$DIMTOFL
 70
     1
  9
$DIMTVP
 40
0.0
  9
$DIMTIX
 70
     0
  9
$DIMSOXD
 70
     0
  9
$DIMSAH
 70
     0
  9
$DIMBLK1
  1

  9
$DIMBLK2
  1

  9
$DIMSTYLE
  2
ISO-25
  9
$DIMCLRD
 70
     0
  9
$DIMCLRE
 70
     0
  9
$DIMCLRT
 70
     0
  9
$DIMTFAC
 40
1.0
  9
$DIMGAP
 40
0.625
  9
$DIMJUST
 70
     0
  9
$DIMSD1
 70
     0
  9
$DIMSD2
 70
     0
  9
$DIMTOLJ
 70
     0
  9
$DIMTZIN
 70
     8
  9
$DIMALTZ
 70
     0
  9
$DIMALTTZ
 70
     0
  9
$DIMUPT
 70
     0
  9
$DIMDEC
 70
     2
  9
$DIMTDEC
 70
     2
  9
$DIMALTU
 70
     2
  9
$DIMALTTD
 70
     3
  9
$DIMTXSTY
  7
Standard
  9
$DIMAUNIT
 70
     0
  9
$DIMADEC
 70
     0
  9
$DIMALTRND
 40
0.0
  9
$DIMAZIN
 70
     0
  9
$DIMDSEP
 70
    44
  9
$DIMATFIT
 70
     3
  9
$DIMFRAC
 70
     0
  9
$DIMLDRBLK
  1

  9
$DIMLUNIT
 70
     2
  9
$DIMLWD
 70
    -2
  9
$DIMLWE
 70
    -2
  9
$DIMTMOVE
 70
     0
  9
$DIMFXL
 40
1.0
  9
$DIMFXLON
 70
     0
  9
$DIMJOGANG
 40
0.7853981633974483
  9
$DIMTFILL
 70
     0
  9
$DIMTFILLCLR
 70
     0
  9
$DIMARCSYM
 70
     0
  9
$DIMLTYPE
  6

  9
$DIMLTEX1
  6

  9
$DIMLTEX2
  6

  9
$DIMTXTDIRECTION
 70
     0
  9
$LUNITS
 70
     2
  9
$LUPREC
 70
     4
  9
$SKETCHINC
 40
1.0
  9
$FILLETRAD
 40
10.0
  9
$AUNITS
 70
     0
  9
$AUPREC
 70
     0
  9
$MENU
  1
.
  9
$ELEVATION
 40
0.0
  9
$PELEVATION
 40
0.0
  9
$THICKNESS
 40
0.0
  9
$LIMCHECK
 70
     0
  9
$CHAMFERA
 40
0.0
  9
$CHAMFERB
 40
0.0
  9
$CHAMFERC
 40
0.0
  9
$CHAMFERD
 40
0.0
  9
$SKPOLY
 70
     0
  9
$TDCREATE
 40
2459684.335367361
  9
$TDUCREATE
 40
2459684.252034028
  9
$TDUPDATE
 40
2459684.335367384
  9
$TDUUPDATE
 40
2459684.252034051
  9
$TDINDWG
 40
0.0000000116
  9
$TDUSRTIMER
 40
0.0000000116
  9
$USRTIMER
 70
     1
  9
$ANGBASE
 50
0.0
  9
$ANGDIR
 70
     0
  9
$PDMODE
 70
     0
  9
$PDSIZE
 40
0.0
  9
$PLINEWID
 40
0.0
  9
$SPLFRAME
 70
     0
  9
$SPLINETYPE
 70
     6
  9
$SPLINESEGS
 70
     8
  9
$HANDSEED
  5
BE
  9
$SURFTAB1
 70
     6
  9
$SURFTAB2
 70
     6
  9
$SURFTYPE
 70
     6
  9
$SURFU
 70
     6
  9
$SURFV
 70
     6
  9
$UCSBASE
  2

  9
$UCSNAME
  2

  9
$UCSORG
 10
0.0
 20
0.0
 30
0.0
  9
$UCSXDIR
 10
1.0
 20
0.0
 30
0.0
  9
$UCSYDIR
 10
0.0
 20
1.0
 30
0.0
  9
$UCSORTHOREF
  2

  9
$UCSORTHOVIEW
 70
     0
  9
$UCSORGTOP
 10
0.0
 20
0.0
 30
0.0
  9
$UCSORGBOTTOM
 10
0.0
 20
0.0
 30
0.0
  9
$UCSORGLEFT
 10
0.0
 20
0.0
 30
0.0
  9
$UCSORGRIGHT
 10
0.0
 20
0.0
 30
0.0
  9
$UCSORGFRONT
 10
0.0
 20
0.0
 30
0.0
  9
$UCSORGBACK
 10
0.0
 20
0.0
 30
0.0
  9
$PUCSBASE
  2

  9
$PUCSNAME
  2

  9
$PUCSORG
 10
0.0
 20
0.0
 30
0.0
  9
$PUCSXDIR
 10
1.0
 20
0.0
 30
0.0
  9
$PUCSYDIR
 10
0.0
 20
1.0
 30
0.0
  9
$PUCSORTHOREF
  2

  9
$PUCSORTHOVIEW
 70
     0
  9
$PUCSORGTOP
 10
0.0
 20
0.0
 30
0.0
  9
$PUCSORGBOTTOM
 10
0.0
 20
0.0
 30
0.0
  9
$PUCSORGLEFT
 10
0.0
 20
0.0
 30
0.0
  9
$PUCSORGRIGHT
 10
0.0
 20
0.0
 30
0.0
  9
$PUCSORGFRONT
 10
0.0
 20
0.0
 30
0.0
  9
$PUCSORGBACK
 10
0.0
 20
0.0
 30
0.0
  9
$USERI1
 70
     0
  9
$USERI2
 70
     0
  9
$USERI3
 70
     0
  9
$USERI4
 70
     0
  9
$USERI5
 70
     0
  9
$USERR1
 40
0.0
  9
$USERR2
 40
0.0
  9
$USERR3
 40
0.0
  9
$USERR4
 40
0.0
  9
$USERR5
 40
0.0
  9
$WORLDVIEW
 70
     1
  9
$SHADEDGE
 70
     3
  9
$SHADEDIF
 70
    70
  9
$TILEMODE
 70
     1
  9
$MAXACTVP
 70
    64
  9
$PINSBASE
 10
0.0
 20
0.0
 30
0.0
  9
$PLIMCHECK
 70
     0
  9
$PEXTMIN
 10
1.000000000000000E+20
 20
1.000000000000000E+20
 30
1.000000000000000E+20
  9
$PEXTMAX
 10
-1.000000000000000E+20
 20
-1.000000000000000E+20
 30
-1.000000000000000E+20
  9
$PLIMMIN
 10
0.0
 20
0.0
  9
$PLIMMAX
 10
420.0
 20
297.0
  9
$UNITMODE
 70
     0
  9
$VISRETAIN
 70
     1
  9
$PLINEGEN
 70
     0
  9
$PSLTSCALE
 70
     1
  9
$TREEDEPTH
 70
  3020
  9
$CMLSTYLE
  2
Standard
  9
$CMLJUST
 70
     0
  9
$CMLSCALE
 40
20.0
  9
$PROXYGRAPHICS
 70
     1
  9
$MEASUREMENT
 70
     1
  9
$CELWEIGHT
370
    -1
  9
$ENDCAPS
280
     0
  9
$JOINSTYLE
280
     0
  9
$LWDISPLAY
290
     0
  9
$INSUNITS
 70
     4
  9
$HYPERLINKBASE
  1

  9
$STYLESHEET
  1

  9
$XEDIT
290
     1
  9
$CEPSNTYPE
380
     0
  9
$PSTYLEMODE
290
     1
  9
$FINGERPRINTGUID
  2
{20203158-3998-41a7-8c10-a3ca96819b43}
  9
$VERSIONGUID
  2
{FAEB1C32-E019-11D5-929B-00C0DF256EC4}
  9
$EXTNAMES
290
     1
  9
$PSVPSCALE
 40
0.0
  9
$OLESTARTUP
290
     0
  9
$SORTENTS
280
   127
  9
$INDEXCTL
280
     0
  9
$HIDETEXT
280
     1
  9
$XCLIPFRAME
280
     2
  9
$HALOGAP
280
     0
  9
$OBSCOLOR
 70
   257
  9
$OBSLTYPE
280
     0
  9
$INTERSECTIONDISPLAY
280
     0
  9
$INTERSECTIONCOLOR
 70
   257
  9
$DIMASSOC
280
     2
  9
$PROJECTNAME
  1

  9
$CAMERADISPLAY
290
     0
  9
$LENSLENGTH
 40
50.0
  9
$CAMERAHEIGHT
 40
0.0
  9
$STEPSPERSEC
 40
2.0
  9
$STEPSIZE
 40
6.0
  9
$3DDWFPREC
 40
2.0
  9
$PSOLWIDTH
 40
5.0
  9
$PSOLHEIGHT
 40
80.0
  9
$LOFTANG1
 40
1.570796326794897
  9
$LOFTANG2
 40
1.570796326794897
  9
$LOFTMAG1
 40
0.0
  9
$LOFTMAG2
 40
0.0
  9
$LOFTPARAM
 70
     7
  9
$LOFTNORMALS
280
     1
  9
$LATITUDE
 40
37.795
  9
$LONGITUDE
 40
-122.394
  9
$NORTHDIRECTION
 40
0.0
  9
$TIMEZONE
 70
 -8000
  9
$LIGHTGLYPHDISPLAY
280
     1
  9
$TILEMODELIGHTSYNCH
280
     1
  9
$CMATERIAL
347
44
  9
$SOLIDHIST
280
     0
  9
$SHOWHIST
280
     1
  9
$DWFFRAME
280
     2
  9
$DGNFRAME
280
     2
  9
$REALWORLDSCALE
290
     1
  9
$INTERFERECOLOR
 62
   256
  9
$CSHADOW
280
     0
  9
$SHADOWPLANELOCATION
 40
0.0
  0
ENDSEC
  0
SECTION
  2
CLASSES
  0
CLASS
  1
ACDBDICTIONARYWDFLT
  2
AcDbDictionaryWithDefault
  3
ObjectDBX Classes
 90
        0
 91
        3
280
     0
281
     0
  0
CLASS
  1
VISUALSTYLE
  2
AcDbVisualStyle
  3
ObjectDBX Classes
 90
     4095
 91
        3
280
     0
281
     0
  0
CLASS
  1
MATERIAL
  2
AcDbMaterial
  3
ObjectDBX Classes
 90
     1153
 91
        3
280
     0
281
     0
  0
CLASS
  1
SCALE
  2
AcDbScale
  3
ObjectDBX Classes
 90
     1153
 91
        3
280
     0
281
     0
  0
CLASS
  1
TABLESTYLE
  2
AcDbTableStyle
  3
ObjectDBX Classes
 90
     4095
 91
        3
280
     0
281
     0
  0
CLASS
  1
MLEADERSTYLE
  2
AcDbMLeaderStyle
  3
ACDB_MLEADERSTYLE_CLASS
 90
     4095
 91
        3
280
     0
281
     0
  0
CLASS
  1
SUN
  2
AcDbSun
  3
SCENEOE
 90
     1153
 91
        3
280
     0
281
     0
  0
CLASS
  1
DICTIONARYVAR
  2
AcDbDictionaryVar
  3
ObjectDBX Classes
 90
        0
 91
        3
280
     0
281
     0
  0
CLASS
  1
CELLSTYLEMAP
  2
AcDbCellStyleMap
  3
ObjectDBX Classes
 90
     1152
 91
        3
280
     0
281
     0
  0
ENDSEC
  0
SECTION
  2
TABLES
  0
TABLE
  2
VPORT
  5
8
330
0
100
AcDbSymbolTable
 70
     1
  0
VPORT
  5
29
330
8
100
AcDbSymbolTableRecord
100
AcDbViewportTableRecord
  2
*Active
 70
     0
 10
0.0
 20
0.0
 11
1.0
 21
1.0
 12
0.0
 22
0.0
 13
0.0
 23
0.0
 14
10.0
 24
10.0
 15
10.0
 25
10.0
 16
0.0
 26
0.0
 36
1.0
 17
350.0730858059679
 27
239.5000758399298
 37
0.0
 40
72.45015926385268
 41
5.306454590284755
 42
50.0
 43
0.0
 44
0.0
 50
0.0
 51
0.0
 71
     0
 72
   100
 73
     1
 74
     3
 75
     0
 76
     0
 77
     0
 78
     0
281
     0
 65
     1
110
0.0
120
0.0
130
0.0
111
1.0
121
0.0
131
0.0
112
0.0
122
1.0
132
0.0
 79
     0
146
0.0
348
2F
 60
     3
 61
     5
292
     1
282
     1
141
0.0
142
0.0
 63
   250
361
6D
  0
ENDTAB
  0
TABLE
  2
LTYPE
  5
5
330
0
100
AcDbSymbolTable
 70
     4
  0
LTYPE
  5
14
330
5
100
AcDbSymbolTableRecord
100
AcDbLinetypeTableRecord
  2
ByBlock
 70
     0
  3

 72
    65
 73
     0
 40
0.0
  0
LTYPE
  5
15
330
5
100
AcDbSymbolTableRecord
100
AcDbLinetypeTableRecord
  2
ByLayer
 70
     0
  3

 72
    65
 73
     0
 40
0.0
  0
LTYPE
  5
16
330
5
100
AcDbSymbolTableRecord
100
AcDbLinetypeTableRecord
  2
Continuous
 70
     0
  3
Solid line
 72
    65
 73
     0
 40
0.0
  0
LTYPE
  5
6E
330
5
100
AcDbSymbolTableRecord
100
AcDbLinetypeTableRecord
  2
Gestrichelt
 70
     0
  3

 72
    83
 73
     3
 40
10.0
 49
2.5
 74
     0
 49
-5.0
 74
     0
 49
2.5
 74
     0
  0
LTYPE
  5
6F
330
5
100
AcDbSymbolTableRecord
100
AcDbLinetypeTableRecord
  2
PHL_THICK
 70
     0
  3

 72
    83
 73
     0
 40
0.0
  0
LTYPE
  5
70
330
5
100
AcDbSymbolTableRecord
100
AcDbLinetypeTableRecord
  2
StrichPunkt
 70
     0
  3

 72
    83
 73
     5
 40
15.0
 49
5.0
 74
     0
 49
-2.5
 74
     0
 49
0.0
 74
     0
 49
-2.5
 74
     0
 49
5.0
 74
     0
  0
ENDTAB
  0
TABLE
  2
LAYER
  5
2
330
0
100
AcDbSymbolTable
 70
     6
  0
LAYER
  5
10
330
2
100
AcDbSymbolTableRecord
100
AcDbLayerTableRecord
  2
0
 70
     0
 62
     7
  6
Continuous
370
    -3
390
F
347
46
348
0
  0
LAYER
  5
72
330
2
100
AcDbSymbolTableRecord
100
AcDbLayerTableRecord
  2
FEIN
 70
     0
 62
     7
  6
Continuous
370
    -3
390
F
347
46
348
0
  0
LAYER
  5
73
330
2
100
AcDbSymbolTableRecord
100
AcDbLayerTableRecord
  2
Maße
 70
     0
 62
     7
  6
Continuous
370
    -3
390
F
347
46
348
0
  0
LAYER
  5
74
330
2
100
AcDbSymbolTableRecord
100
AcDbLayerTableRecord
  2
Hilfslinie
 70
     0
 62
     1
420
 16711680
  6
Continuous
370
    -3
390
F
347
46
348
0
  0
LAYER
  5
75
330
2
100
AcDbSymbolTableRecord
100
AcDbLayerTableRecord
  2
Schrift
 70
     0
 62
     7
  6
Continuous
370
    -3
390
F
347
46
348
0
  0
LAYER
  5
7A
330
2
100
AcDbSymbolTableRecord
100
AcDbLayerTableRecord
  2
Defpoints
 70
     0
 62
     7
  6
Continuous
290
     0
370
    -3
390
F
347
46
348
0
  0
ENDTAB
  0
TABLE
  2
STYLE
  5
3
330
0
100
AcDbSymbolTable
 70
     3
  0
STYLE
  5
11
330
3
100
AcDbSymbolTableRecord
100
AcDbTextStyleTableRecord
  2
Standard
 70
     0
 40
10.0
 41
1.0
 50
0.0
 71
     0
 42
2.5
  3
Simplex
  4

  0
STYLE
  5
71
330
3
100
AcDbSymbolTableRecord
100
AcDbTextStyleTableRecord
  2
Standard_Dim
 70
     0
 40
0.0
 41
1.0
 50
0.0
 71
     0
 42
2.5
  3
Simplex
  4

  0
STYLE
  5
76
330
3
100
AcDbSymbolTableRecord
100
AcDbTextStyleTableRecord
  2
Standard_Dim1
 70
     0
 40
0.0
 41
1.0
 50
0.0
 71
     0
 42
2.5
  3
Simplex
  4

  0
ENDTAB
  0
TABLE
  2
VIEW
  5
6
330
0
100
AcDbSymbolTable
 70
     0
  0
ENDTAB
  0
TABLE
  2
UCS
  5
7
330
0
100
AcDbSymbolTable
 70
     0
  0
ENDTAB
  0
TABLE
  2
APPID
  5
9
330
0
100
AcDbSymbolTable
 70
     1
  0
APPID
  5
12
330
9
100
AcDbSymbolTableRecord
100
AcDbRegAppTableRecord
  2
ACAD
 70
     0
  0
ENDTAB
  0
TABLE
  2
DIMSTYLE
  5
A
330
0
100
AcDbSymbolTable
 70
     3
100
AcDbDimStyleTable
  0
DIMSTYLE
105
27
330
A
100
AcDbSymbolTableRecord
100
AcDbDimStyleTableRecord
  2
ISO-25
 70
     0
 41
2.5
 42
0.625
 43
3.75
 44
1.25
 73
     0
 74
     0
 77
     1
 78
     8
140
2.5
141
2.5
143
0.03937007874016
147
0.625
171
     3
172
     1
178
     0
271
     2
272
     2
274
     3
278
    44
283
     0
284
     8
340
11
  0
DIMSTYLE
105
77
102
{ACAD_REACTORS
330
79
330
88
330
96
102
}
330
A
100
AcDbSymbolTableRecord
100
AcDbDimStyleTableRecord
  2
Standard
 70
     0
 41
2.0
 42
3.0
 44
0.0
 73
     0
 74
     0
 78
    12
140
3.0
147
0.45
176
     7
177
     7
271
     2
178
     7
179
     2
271
     2
272
     2
340
76
  0
DIMSTYLE
105
78
330
A
100
AcDbSymbolTableRecord
100
AcDbDimStyleTableRecord
  2
GROß
 70
     0
 41
8.0
 42
3.0
 44
0.0
 73
     0
 74
     0
 78
    12
140
6.0
147
0.8999999999999999
176
     7
177
     7
271
     1
178
     7
179
     2
271
     1
272
     1
274
     1
340
71
  0
ENDTAB
  0
TABLE
  2
BLOCK_RECORD
  5
1
330
0
100
AcDbSymbolTable
 70
     6
  0
BLOCK_RECORD
  5
1F
330
1
100
AcDbSymbolTableRecord
100
AcDbBlockTableRecord
  2
*Model_Space
340
22
 70
     0
280
     1
281
     0
  0
BLOCK_RECORD
  5
1B
330
1
100
AcDbSymbolTableRecord
100
AcDbBlockTableRecord
  2
*Paper_Space
340
1E
 70
     0
280
     1
281
     0
  0
BLOCK_RECORD
  5
23
330
1
100
AcDbSymbolTableRecord
100
AcDbBlockTableRecord
  2
*Paper_Space0
340
26
 70
     0
280
     1
281
     0
  0
BLOCK_RECORD
  5
7B
330
1
100
AcDbSymbolTableRecord
100
AcDbBlockTableRecord
  2
*D1
340
0
 70
     0
280
     1
281
     0
  0
BLOCK_RECORD
  5
89
330
1
100
AcDbSymbolTableRecord
100
AcDbBlockTableRecord
  2
*D2
340
0
 70
     0
280
     1
281
     0
  0
BLOCK_RECORD
  5
97
330
1
100
AcDbSymbolTableRecord
100
AcDbBlockTableRecord
  2
*D3
340
0
 70
     0
280
     1
281
     0
  0
BLOCK_RECORD
  5
A4
330
1
100
AcDbSymbolTableRecord
100
AcDbBlockTableRecord
  2
*U4
340
0
102
{BLKREFS
331
B1
102
}
 70
     0
280
     1
281
     0
  0
BLOCK_RECORD
  5
A5
330
1
100
AcDbSymbolTableRecord
100
AcDbBlockTableRecord
  2
*U5
340
0
102
{BLKREFS
331
AE
102
}
 70
     0
280
     1
281
     0
  0
ENDTAB
  0
ENDSEC
  0
SECTION
  2
BLOCKS
  0
BLOCK
  5
20
330
1F
100
AcDbEntity
  8
0
100
AcDbBlockBegin
  2
*Model_Space
 70
     0
 10
0.0
 20
0.0
 30
0.0
  3
*Model_Space
  1

  0
ENDBLK
  5
21
330
1F
100
AcDbEntity
  8
0
100
AcDbBlockEnd
  0
BLOCK
  5
1C
330
1B
100
AcDbEntity
 67
     1
  8
0
100
AcDbBlockBegin
  2
*Paper_Space
 70
     0
 10
0.0
 20
0.0
 30
0.0
  3
*Paper_Space
  1

  0
ENDBLK
  5
1D
330
1B
100
AcDbEntity
 67
     1
  8
0
100
AcDbBlockEnd
  0
BLOCK
  5
24
330
23
100
AcDbEntity
  8
0
100
AcDbBlockBegin
  2
*Paper_Space0
 70
     0
 10
0.0
 20
0.0
 30
0.0
  3
*Paper_Space0
  1

  0
ENDBLK
  5
25
330
23
100
AcDbEntity
  8
0
100
AcDbBlockEnd
  0
BLOCK
  5
7C
330
7B
100
AcDbEntity
  8
0
100
AcDbBlockBegin
  2
*D1
 70
     1
 10
0.0
 20
0.0
 30
0.0
  3
*D1
  1

  0
LINE
  5
7E
330
7B
100
AcDbEntity
  8
Maße
 62
     7
370
    -2
100
AcDbLine
 10
404.4399749149654
 20
274.0
 30
0.0
 11
408.4399749149654
 21
274.0
 31
0.0
  0
LINE
  5
7F
330
7B
100
AcDbEntity
  8
Maße
 62
     7
370
    -2
100
AcDbLine
 10
404.4399749149654
 20
214.0
 30
0.0
 11
408.4399749149654
 21
214.0
 31
0.0
  0
LINE
  5
80
330
7B
100
AcDbEntity
  8
Maße
 62
     7
370
    -2
100
AcDbLine
 10
408.4399749149654
 20
272.0
 30
0.0
 11
408.4399749149654
 21
246.8071428571428
 31
0.0
  0
LINE
  5
81
330
7B
100
AcDbEntity
  8
Maße
 62
     7
370
    -2
100
AcDbLine
 10
408.4399749149654
 20
216.0
 30
0.0
 11
408.4399749149654
 21
241.1928571428572
 31
0.0
  0
SOLID
  5
82
330
7B
100
AcDbEntity
  8
Maße
 62
     7
100
AcDbTrace
 10
408.7733082482987
 20
272.0
 30
0.0
 11
408.1066415816321
 21
272.0
 31
0.0
 12
408.4399749149654
 22
274.0
 32
0.0
 13
408.4399749149654
 23
274.0
 33
0.0
  0
SOLID
  5
83
330
7B
100
AcDbEntity
  8
Maße
 62
     7
100
AcDbTrace
 10
408.1066415816321
 20
216.0
 30
0.0
 11
408.7733082482987
 21
216.0
 31
0.0
 12
408.4399749149654
 22
214.0
 32
0.0
 13
408.4399749149654
 23
214.0
 33
0.0
  0
MTEXT
  5
84
330
7B
100
AcDbEntity
  8
Maße
 62
     7
100
AcDbMText
 10
408.4399749149654
 20
244.0
 30
0.0
 40
3.0
 41
0.0
 46
0.0
 71
     5
 72
     1
  1
\A1;60
  7
Standard_Dim1
 11
0.0
 21
1.0
 31
0.0
 73
     1
 44
1.0
  0
POINT
  5
85
330
7B
100
AcDbEntity
  8
Defpoints
 62
     0
100
AcDbPoint
 10
401.4399749149654
 20
274.0
 30
0.0
  0
POINT
  5
86
330
7B
100
AcDbEntity
  8
Defpoints
 62
     0
100
AcDbPoint
 10
401.4399749149654
 20
214.0
 30
0.0
  0
POINT
  5
87
330
7B
100
AcDbEntity
  8
Defpoints
 62
     0
100
AcDbPoint
 10
408.4399749149654
 20
214.0
 30
0.0
  0
ENDBLK
  5
7D
330
7B
100
AcDbEntity
  8
0
100
AcDbBlockEnd
  0
BLOCK
  5
8A
330
89
100
AcDbEntity
  8
0
100
AcDbBlockBegin
  2
*D2
 70
     1
 10
0.0
 20
0.0
 30
0.0
  3
*D2
  1

  0
LINE
  5
8C
330
89
100
AcDbEntity
  8
Maße
 62
     7
370
    -2
100
AcDbLine
 10
303.4399749147993
 20
211.0
 30
0.0
 11
303.4399749147993
 21
207.0
 31
0.0
  0
LINE
  5
8D
330
89
100
AcDbEntity
  8
Maße
 62
     7
370
    -2
100
AcDbLine
 10
311.4399749147992
 20
211.0
 30
0.0
 11
311.4399749147992
 21
207.0
 31
0.0
  0
LINE
  5
8E
330
89
100
AcDbEntity
  8
Maße
 62
     7
370
    -2
100
AcDbLine
 10
305.4399749147993
 20
207.0
 30
0.0
 11
305.9899749147992
 21
207.0
 31
0.0
  0
LINE
  5
8F
330
89
100
AcDbEntity
  8
Maße
 62
     7
370
    -2
100
AcDbLine
 10
309.4399749147992
 20
207.0
 30
0.0
 11
308.8899749147992
 21
207.0
 31
0.0
  0
SOLID
  5
90
330
89
100
AcDbEntity
  8
Maße
 62
     7
100
AcDbTrace
 10
305.4399749147993
 20
207.3333333333333
 30
0.0
 11
305.4399749147993
 21
206.6666666666667
 31
0.0
 12
303.4399749147993
 22
207.0
 32
0.0
 13
303.4399749147993
 23
207.0
 33
0.0
  0
SOLID
  5
91
330
89
100
AcDbEntity
  8
Maße
 62
     7
100
AcDbTrace
 10
309.4399749147992
 20
206.6666666666667
 30
0.0
 11
309.4399749147992
 21
207.3333333333333
 31
0.0
 12
311.4399749147992
 22
207.0
 32
0.0
 13
311.4399749147992
 23
207.0
 33
0.0
  0
MTEXT
  5
92
330
89
100
AcDbEntity
  8
Maße
 62
     7
100
AcDbMText
 10
307.4399749147992
 20
207.0
 30
0.0
 40
3.0
 41
0.0
 46
0.0
 71
     5
 72
     1
  1
\A1;8
  7
Standard_Dim1
 73
     1
 44
1.0
  0
POINT
  5
93
330
89
100
AcDbEntity
  8
Defpoints
 62
     0
100
AcDbPoint
 10
303.4399749147993
 20
214.0
 30
0.0
  0
POINT
  5
94
330
89
100
AcDbEntity
  8
Defpoints
 62
     0
100
AcDbPoint
 10
311.4399749147992
 20
214.0
 30
0.0
  0
POINT
  5
95
330
89
100
AcDbEntity
  8
Defpoints
 62
     0
100
AcDbPoint
 10
311.4399749147992
 20
207.0
 30
0.0
  0
ENDBLK
  5
8B
330
89
100
AcDbEntity
  8
0
100
AcDbBlockEnd
  0
BLOCK
  5
98
330
97
100
AcDbEntity
  8
0
100
AcDbBlockBegin
  2
*D3
 70
     1
 10
0.0
 20
0.0
 30
0.0
  3
*D3
  1

  0
LINE
  5
9A
330
97
100
AcDbEntity
  8
Maße
 62
     7
370
    -2
100
AcDbLine
 10
401.4399749149654
 20
211.0
 30
0.0
 11
401.4399749149654
 21
207.0
 31
0.0
  0
LINE
  5
9B
330
97
100
AcDbEntity
  8
Maße
 62
     7
370
    -2
100
AcDbLine
 10
311.4399749147992
 20
211.0
 30
0.0
 11
311.4399749147992
 21
207.0
 31
0.0
  0
LINE
  5
9C
330
97
100
AcDbEntity
  8
Maße
 62
     7
370
    -2
100
AcDbLine
 10
399.4399749149654
 20
207.0
 30
0.0
 11
359.3185463434538
 21
207.0
 31
0.0
  0
LINE
  5
9D
330
97
100
AcDbEntity
  8
Maße
 62
     7
370
    -2
100
AcDbLine
 10
313.4399749147992
 20
207.0
 30
0.0
 11
353.5614034863109
 21
207.0
 31
0.0
  0
SOLID
  5
9E
330
97
100
AcDbEntity
  8
Maße
 62
     7
100
AcDbTrace
 10
399.4399749149654
 20
206.6666666666667
 30
0.0
 11
399.4399749149654
 21
207.3333333333333
 31
0.0
 12
401.4399749149654
 22
207.0
 32
0.0
 13
401.4399749149654
 23
207.0
 33
0.0
  0
SOLID
  5
9F
330
97
100
AcDbEntity
  8
Maße
 62
     7
100
AcDbTrace
 10
313.4399749147992
 20
207.3333333333333
 30
0.0
 11
313.4399749147992
 21
206.6666666666667
 31
0.0
 12
311.4399749147992
 22
207.0
 32
0.0
 13
311.4399749147992
 23
207.0
 33
0.0
  0
MTEXT
  5
A0
330
97
100
AcDbEntity
  8
Maße
 62
     7
100
AcDbMText
 10
356.4399749148823
 20
207.0
 30
0.0
 40
3.0
 41
0.0
 46
0.0
 71
     5
 72
     1
  1
\A1;90
  7
Standard_Dim1
 73
     1
 44
1.0
  0
POINT
  5
A1
330
97
100
AcDbEntity
  8
Defpoints
 62
     0
100
AcDbPoint
 10
401.4399749149654
 20
214.0
 30
0.0
  0
POINT
  5
A2
330
97
100
AcDbEntity
  8
Defpoints
 62
     0
100
AcDbPoint
 10
311.4399749147992
 20
214.0
 30
0.0
  0
POINT
  5
A3
330
97
100
AcDbEntity
  8
Defpoints
 62
     0
100
AcDbPoint
 10
311.4399749147992
 20
207.0
 30
0.0
  0
ENDBLK
  5
99
330
97
100
AcDbEntity
  8
0
100
AcDbBlockEnd
  0
BLOCK
  5
AF
330
A4
100
AcDbEntity
  8
0
100
AcDbBlockBegin
  2
*U4
 70
     1
 10
0.0
 20
0.0
 30
0.0
  3
*U4
  1

  0
INSERT
  5
AE
330
A4
100
AcDbEntity
  8
FEIN
100
AcDbBlockReference
  2
*U5
 10
0.0
 20
0.0
 30
0.0
  0
ENDBLK
  5
B0
330
A4
100
AcDbEntity
  8
0
100
AcDbBlockEnd
  0
BLOCK
  5
AC
330
A5
100
AcDbEntity
  8
0
100
AcDbBlockBegin
  2
*U5
 70
     1
 10
0.0
 20
0.0
 30
0.0
  3
*U5
  1

  0
HATCH
  5
A6
330
A5
100
AcDbEntity
  8
FEIN
 62
   254
420
 13421772
 48
0.5
100
AcDbHatch
 10
0.0
 20
0.0
 30
0.0
210
0.0
220
0.0
230
1.0
  2
SOLID
 70
     1
 71
     0
 91
        1
 92
       18
 72
     1
 73
     1
 93
      106
 10
800.5000000000016
 20
-767.1344620853852
 42
0.0
 10
794.0000000000017
 20
-767.1344620853852
 42
-0.4142135623730976
 10
793.5000000000017
 20
-766.6344620853852
 42
0.0
 10
793.5000000000017
 20
-760.844524346848
 42
0.0
 10
793.2899377385387
 20
-760.6344620853852
 42
0.0
 10
793.5000000000017
 20
-760.4243998239222
 42
0.0
 10
793.5000000000017
 20
-754.6344620853852
 42
-0.4142135623730977
 10
794.0000000000017
 20
-754.1344620853852
 42
0.0
 10
800.5000000000016
 20
-754.1344620853852
 42
0.414213562373095
 10
801.0000000000016
 20
-753.6344620853852
 42
0.0
 10
801.0000000000016
 20
-751.9344620853851
 42
-0.414213562373095
 10
801.3000000000017
 20
-751.6344620853852
 42
0.0
 10
807.7000000000016
 20
-751.6344620853852
 42
0.414213562373095
 10
808.0000000000016
 20
-751.3344620853851
 42
0.0
 10
808.0000000000017
 20
-750.3344620853851
 42
0.4142135623731037
 10
807.7000000000016
 20
-750.0344620853853
 42
0.0
 10
804.7235689077188
 20
-750.0344620853851
 42
0.2952440171541602
 10
804.5751024105512
 20
-749.7443600742005
 42
0.0
 10
804.033616075637
 20
-749.4317327929754
 42
0.3492203665999223
 10
803.6642065126108
 20
-749.4869446085509
 42
-0.0116442663698352
 10
803.6235251443263
 20
-749.5285839016008
 42
0.1730356836644193
 10
803.5350405439762
 20
-749.7097347690875
 42
-0.2611842625504445
 10
803.3639298852454
 20
-749.9480792655426
 42
-0.2221472241711485
 10
802.1360701147579
 20
-749.9480792655426
 42
-0.2611842625504466
 10
801.9649594560271
 20
-749.7097347690874
 42
0.1730356836644086
 10
801.876474855677
 20
-749.5285839016008
 42
-0.0276494086763458
 10
801.7831478544771
 20
-749.426735351812
 42
0.1730356836643501
 10
801.6103982617975
 20
-749.3227991236753
 42
-0.2611842625503189
 10
801.3878740146635
 20
-749.1315665010422
 42
-0.1767717443133812
 10
801.3878740146633
 20
-748.137357669728
 42
-0.2611842625503342
 10
801.6103982617975
 20
-747.946125047095
 42
0.1730356836643131
 10
801.7831478544771
 20
-747.8421888189582
 42
-0.0276494086763411
 10
801.876474855677
 20
-747.7403402691696
 42
0.1730356836642543
 10
801.9649594560271
 20
-747.559189401683
 42
-0.2611842625501837
 10
802.1360701147579
 20
-747.3208449052282
 42
-0.2221472241712646
 10
803.3639298852454
 20
-747.3208449052282
 42
-0.2611842625502115
 10
803.5350405439762
 20
-747.559189401683
 42
0.1730356836642125
 10
803.6235251443263
 20
-747.7403402691696
 42
-0.0116442663698499
 10
803.6642065126108
 20
-747.7819795622194
 42
0.3492203665999388
 10
804.033616075637
 20
-747.8371913777949
 42
0.0
 10
804.5728331938996
 20
-747.5258742294144
 42
0.3764707816207228
 10
804.6999578474275
 20
-747.1511669720437
 42
0.0583539927663745
 10
804.304490116788
 20
-746.7407724390034
 42
-0.2245260915017366
 10
804.1948358453741
 20
-746.5088920741402
 42
0.0
 10
804.1948358453741
 20
-746.4344620853851
 42
-0.4142135623731124
 10
804.4948358453742
 20
-746.1344620853852
 42
0.0
 10
822.7000000000016
 20
-746.1344620853852
 42
0.0
 10
823.0000000000016
 20
-745.8344620853851
 42
0.0
 10
823.3000000000015
 20
-746.1344620853852
 42
0.0
 10
841.5000000000016
 20
-746.1344620853852
 42
0.414213562373095
 10
842.0000000000016
 20
-745.6344620853852
 42
0.0
 10
842.0000000000016
 20
-744.6344620853852
 42
0.414213562373095
 10
841.5000000000016
 20
-744.1344620853852
 42
0.0
 10
818.6000000000016
 20
-744.1344620853852
 42
0.0
 10
818.6000000000016
 20
-744.4344620853851
 42
-0.414213562373095
 10
818.3000000000017
 20
-744.7344620853852
 42
0.0
 10
817.3000000000017
 20
-744.7344620853851
 42
-0.414213562373095
 10
817.0000000000017
 20
-744.4344620853851
 42
0.0
 10
817.0000000000017
 20
-744.1344620853852
 42
0.0
 10
802.3000000000017
 20
-744.1344620853852
 42
-0.414213562373095
 10
802.0000000000017
 20
-743.8344620853851
 42
0.0
 10
802.0000000000017
 20
-742.6344620853852
 42
-0.3939104756149456
 10
802.2790730578785
 20
-742.3351928703072
 42
0.0
 10
804.220926942125
 20
-742.1994052189218
 42
0.393910475614921
 10
804.5000000000017
 20
-741.9001360038438
 42
0.0
 10
804.5000000000017
 20
-741.6344620853852
 42
0.414213562373095
 10
804.0000000000017
 20
-741.1344620853852
 42
0.0
 10
791.5000000000017
 20
-741.1344620853852
 42
0.4142135623730926
 10
791.0000000000017
 20
-741.6344620853852
 42
0.0
 10
791.0000000000017
 20
-745.4344620853851
 42
0.4142135623730976
 10
791.5000000000017
 20
-745.9344620853852
 42
0.0
 10
792.0000000000017
 20
-745.9344620853851
 42
0.4142135623730976
 10
792.5000000000017
 20
-745.4344620853851
 42
0.0
 10
792.5000000000017
 20
-743.4344620853851
 42
-0.414213562373095
 10
793.0000000000017
 20
-742.9344620853851
 42
0.0
 10
797.0000000000017
 20
-742.9344620853851
 42
-0.4142135623730944
 10
799.0000000000017
 20
-744.9344620853851
 42
0.0
 10
799.0000000000017
 20
-750.1344620853852
 42
-0.4142135623730938
 10
797.0000000000017
 20
-752.1344620853852
 42
0.0
 10
793.0000000000017
 20
-752.1344620853852
 42
-0.414213562373095
 10
792.5000000000017
 20
-751.6344620853852
 42
0.0
 10
792.5000000000017
 20
-749.6344620853852
 42
0.4142135623730847
 10
792.0000000000017
 20
-749.1344620853852
 42
0.0
 10
791.5000000000017
 20
-749.1344620853852
 42
0.4142135623730977
 10
791.0000000000017
 20
-749.6344620853852
 42
0.0
 10
791.0000000000017
 20
-773.6344620853852
 42
0.4142135623731003
 10
791.5000000000017
 20
-774.1344620853852
 42
0.0
 10
792.0000000000017
 20
-774.1344620853852
 42
0.414213562373095
 10
792.5000000000017
 20
-773.6344620853852
 42
0.0
 10
792.5000000000017
 20
-769.6344620853852
 42
-0.414213562373095
 10
793.0000000000017
 20
-769.1344620853852
 42
0.0
 10
798.5000000000017
 20
-769.1344620853852
 42
-0.414213562373095
 10
799.0000000000017
 20
-769.6344620853852
 42
0.0
 10
799.0000000000017
 20
-798.6344620853852
 42
-0.414213562373095
 10
798.5000000000017
 20
-799.1344620853852
 42
0.0
 10
793.0000000000017
 20
-799.1344620853852
 42
-0.414213562373095
 10
792.5000000000017
 20
-798.6344620853852
 42
0.0
 10
792.5000000000017
 20
-794.6344620853852
 42
0.4142135623730924
 10
792.0000000000017
 20
-794.1344620853852
 42
0.0
 10
791.5000000000017
 20
-794.1344620853852
 42
0.414213562373095
 10
791.0000000000017
 20
-794.6344620853852
 42
0.0
 10
791.0000000000017
 20
-800.6344620853852
 42
0.414213562373095
 10
791.5000000000017
 20
-801.1344620853852
 42
0.0
 10
800.7000000000016
 20
-801.1344620853852
 42
0.414213562373095
 10
801.0000000000016
 20
-800.8344620853851
 42
0.0
 10
801.0000000000016
 20
-767.6344620853852
 42
0.414213562373095
 97
        0
 75
     0
 76
     1
 98
        0
  0
LWPOLYLINE
  5
A7
330
A5
100
AcDbEntity
  8
FEIN
 48
0.5
100
AcDbPolyline
 90
      106
 70
     1
 43
0.0
 10
800.5000000000016
 20
-767.1344620853852
 10
794.0000000000017
 20
-767.1344620853852
 42
-0.4142135623730976
 10
793.5000000000017
 20
-766.6344620853852
 10
793.5000000000017
 20
-760.844524346848
 10
793.2899377385387
 20
-760.6344620853852
 10
793.5000000000017
 20
-760.4243998239222
 10
793.5000000000017
 20
-754.6344620853852
 42
-0.4142135623730977
 10
794.0000000000017
 20
-754.1344620853852
 10
800.5000000000016
 20
-754.1344620853852
 42
0.414213562373095
 10
801.0000000000016
 20
-753.6344620853852
 10
801.0000000000016
 20
-751.9344620853851
 42
-0.414213562373095
 10
801.3000000000017
 20
-751.6344620853852
 10
807.7000000000016
 20
-751.6344620853852
 42
0.414213562373095
 10
808.0000000000016
 20
-751.3344620853851
 10
808.0000000000017
 20
-750.3344620853851
 42
0.4142135623731037
 10
807.7000000000016
 20
-750.0344620853853
 10
804.7235689077188
 20
-750.0344620853851
 42
0.2952440171541602
 10
804.5751024105512
 20
-749.7443600742005
 10
804.033616075637
 20
-749.4317327929754
 42
0.3492203665999223
 10
803.6642065126108
 20
-749.4869446085509
 42
-0.0116442663698352
 10
803.6235251443263
 20
-749.5285839016008
 42
0.1730356836644193
 10
803.5350405439762
 20
-749.7097347690875
 42
-0.2611842625504445
 10
803.3639298852454
 20
-749.9480792655426
 42
-0.2221472241711485
 10
802.1360701147579
 20
-749.9480792655426
 42
-0.2611842625504466
 10
801.9649594560271
 20
-749.7097347690874
 42
0.1730356836644086
 10
801.876474855677
 20
-749.5285839016008
 42
-0.0276494086763458
 10
801.7831478544771
 20
-749.426735351812
 42
0.1730356836643501
 10
801.6103982617975
 20
-749.3227991236753
 42
-0.2611842625503189
 10
801.3878740146635
 20
-749.1315665010422
 42
-0.1767717443133812
 10
801.3878740146633
 20
-748.137357669728
 42
-0.2611842625503342
 10
801.6103982617975
 20
-747.946125047095
 42
0.1730356836643131
 10
801.7831478544771
 20
-747.8421888189582
 42
-0.0276494086763411
 10
801.876474855677
 20
-747.7403402691696
 42
0.1730356836642543
 10
801.9649594560271
 20
-747.559189401683
 42
-0.2611842625501837
 10
802.1360701147579
 20
-747.3208449052282
 42
-0.2221472241712646
 10
803.3639298852454
 20
-747.3208449052282
 42
-0.2611842625502115
 10
803.5350405439762
 20
-747.559189401683
 42
0.1730356836642125
 10
803.6235251443263
 20
-747.7403402691696
 42
-0.0116442663698499
 10
803.6642065126108
 20
-747.7819795622194
 42
0.3492203665999388
 10
804.033616075637
 20
-747.8371913777949
 10
804.5728331938996
 20
-747.5258742294144
 42
0.3764707816207228
 10
804.6999578474275
 20
-747.1511669720437
 42
0.0583539927663745
 10
804.304490116788
 20
-746.7407724390034
 42
-0.2245260915017366
 10
804.1948358453741
 20
-746.5088920741402
 10
804.1948358453741
 20
-746.4344620853851
 42
-0.4142135623731124
 10
804.4948358453742
 20
-746.1344620853852
 10
822.7000000000016
 20
-746.1344620853852
 10
823.0000000000016
 20
-745.8344620853851
 10
823.3000000000015
 20
-746.1344620853852
 10
841.5000000000016
 20
-746.1344620853852
 42
0.414213562373095
 10
842.0000000000016
 20
-745.6344620853852
 10
842.0000000000016
 20
-744.6344620853852
 42
0.414213562373095
 10
841.5000000000016
 20
-744.1344620853852
 10
818.6000000000016
 20
-744.1344620853852
 10
818.6000000000016
 20
-744.4344620853851
 42
-0.414213562373095
 10
818.3000000000017
 20
-744.7344620853852
 10
817.3000000000017
 20
-744.7344620853851
 42
-0.414213562373095
 10
817.0000000000017
 20
-744.4344620853851
 10
817.0000000000017
 20
-744.1344620853852
 10
802.3000000000017
 20
-744.1344620853852
 42
-0.414213562373095
 10
802.0000000000017
 20
-743.8344620853851
 10
802.0000000000017
 20
-742.6344620853852
 42
-0.3939104756149456
 10
802.2790730578785
 20
-742.3351928703072
 10
804.220926942125
 20
-742.1994052189218
 42
0.393910475614921
 10
804.5000000000017
 20
-741.9001360038438
 10
804.5000000000017
 20
-741.6344620853852
 42
0.414213562373095
 10
804.0000000000017
 20
-741.1344620853852
 10
791.5000000000017
 20
-741.1344620853852
 42
0.4142135623730926
 10
791.0000000000017
 20
-741.6344620853852
 10
791.0000000000017
 20
-745.4344620853851
 42
0.4142135623730976
 10
791.5000000000017
 20
-745.9344620853852
 10
792.0000000000017
 20
-745.9344620853851
 42
0.4142135623730976
 10
792.5000000000017
 20
-745.4344620853851
 10
792.5000000000017
 20
-743.4344620853851
 42
-0.414213562373095
 10
793.0000000000017
 20
-742.9344620853851
 10
797.0000000000017
 20
-742.9344620853851
 42
-0.4142135623730944
 10
799.0000000000017
 20
-744.9344620853851
 10
799.0000000000017
 20
-750.1344620853852
 42
-0.4142135623730938
 10
797.0000000000017
 20
-752.1344620853852
 10
793.0000000000017
 20
-752.1344620853852
 42
-0.414213562373095
 10
792.5000000000017
 20
-751.6344620853852
 10
792.5000000000017
 20
-749.6344620853852
 42
0.4142135623730847
 10
792.0000000000017
 20
-749.1344620853852
 10
791.5000000000017
 20
-749.1344620853852
 42
0.4142135623730977
 10
791.0000000000017
 20
-749.6344620853852
 10
791.0000000000017
 20
-773.6344620853852
 42
0.4142135623731003
 10
791.5000000000017
 20
-774.1344620853852
 10
792.0000000000017
 20
-774.1344620853852
 42
0.414213562373095
 10
792.5000000000017
 20
-773.6344620853852
 10
792.5000000000017
 20
-769.6344620853852
 42
-0.414213562373095
 10
793.0000000000017
 20
-769.1344620853852
 10
798.5000000000017
 20
-769.1344620853852
 42
-0.414213562373095
 10
799.0000000000017
 20
-769.6344620853852
 10
799.0000000000017
 20
-798.6344620853852
 42
-0.414213562373095
 10
798.5000000000017
 20
-799.1344620853852
 10
793.0000000000017
 20
-799.1344620853852
 42
-0.414213562373095
 10
792.5000000000017
 20
-798.6344620853852
 10
792.5000000000017
 20
-794.6344620853852
 42
0.4142135623730924
 10
792.0000000000017
 20
-794.1344620853852
 10
791.5000000000017
 20
-794.1344620853852
 42
0.414213562373095
 10
791.0000000000017
 20
-794.6344620853852
 10
791.0000000000017
 20
-800.6344620853852
 42
0.414213562373095
 10
791.5000000000017
 20
-801.1344620853852
 10
800.7000000000016
 20
-801.1344620853852
 42
0.414213562373095
 10
801.0000000000016
 20
-800.8344620853851
 10
801.0000000000016
 20
-767.6344620853852
 42
0.414213562373095
  0
HATCH
  5
A8
330
A5
100
AcDbEntity
  8
FEIN
 62
   254
420
 13421772
 48
0.3333333432674408
100
AcDbHatch
 10
0.0
 20
0.0
 30
0.0
210
0.0
220
0.0
230
1.0
  2
SOLID
 70
     1
 71
     0
 91
        1
 92
       18
 72
     1
 73
     1
 93
       89
 10
845.0000000000017
 20
-800.8346137652459
 42
0.0
 10
845.0000000000017
 20
-751.9346137652459
 42
-0.4142135623730835
 10
845.3000000000017
 20
-751.634613765246
 42
0.0
 10
851.7000000000022
 20
-751.634613765246
 42
0.414213562373095
 10
852.0000000000022
 20
-751.3346137652459
 42
0.0
 10
852.0000000000022
 20
-750.3346137652459
 42
0.414213562373095
 10
851.7000000000022
 20
-750.0346137652459
 42
0.0
 10
849.3000000000021
 20
-750.0346137652459
 42
-0.414213562373095
 10
849.0000000000022
 20
-749.734613765246
 42
0.0
 10
849.0000000000022
 20
-749.3346137652472
 42
0.414213562373095
 10
848.7000000000022
 20
-749.0346137652472
 42
0.0
 10
848.1000000000022
 20
-749.0346137652472
 42
0.414213562373095
 10
847.8000000000021
 20
-749.3346137652472
 42
0.0
 10
847.8000000000021
 20
-749.734613765246
 42
-0.414213562373095
 10
847.5000000000022
 20
-750.0346137652459
 42
0.0
 10
845.3000000000017
 20
-750.0346137652459
 42
-0.414213562373095
 10
845.0000000000017
 20
-749.734613765246
 42
0.0
 10
845.0000000000022
 20
-748.7346137652459
 42
-0.414213562373095
 10
846.0000000000022
 20
-747.7346137652459
 42
0.0
 10
847.3000000000021
 20
-747.7346137652459
 42
0.414213562373095
 10
847.8000000000021
 20
-747.2346137652459
 42
0.0
 10
847.8000000000021
 20
-746.634613765246
 42
-0.414213562373095
 10
848.3000000000021
 20
-746.134613765246
 42
0.0
 10
866.7000000000021
 20
-746.1346137652458
 42
0.0
 10
867.000000000002
 20
-745.8346137652459
 42
0.0
 10
867.3000000000021
 20
-746.134613765246
 42
0.0
 10
885.5000000000022
 20
-746.134613765246
 42
0.414213562373095
 10
886.0000000000022
 20
-745.634613765246
 42
0.0
 10
886.0000000000022
 20
-744.634613765246
 42
0.414213562373095
 10
885.5000000000022
 20
-744.134613765246
 42
0.0
 10
862.6000000000022
 20
-744.134613765246
 42
0.0
 10
862.6000000000022
 20
-744.4346137652459
 42
-0.414213562373095
 10
862.3000000000021
 20
-744.7346137652459
 42
0.0
 10
861.3000000000021
 20
-744.7346137652459
 42
-0.414213562373095
 10
861.0000000000022
 20
-744.4346137652459
 42
0.0
 10
861.0000000000022
 20
-744.134613765246
 42
0.0
 10
846.3000000000022
 20
-744.134613765246
 42
-0.414213562373095
 10
846.0000000000022
 20
-743.8346137652459
 42
0.0
 10
846.0000000000022
 20
-742.634613765246
 42
-0.3939104756149434
 10
846.2790730578789
 20
-742.335344550168
 42
0.0
 10
848.2209269421254
 20
-742.1995568987825
 42
0.3939104756149329
 10
848.5000000000022
 20
-741.9002876837045
 42
0.0
 10
848.5000000000022
 20
-741.634613765246
 42
0.414213562373095
 10
848.0000000000022
 20
-741.134613765246
 42
0.0
 10
823.3000000000021
 20
-741.1346137652458
 42
0.0
 10
823.0000000000022
 20
-741.4346137652459
 42
0.0
 10
822.7000000000021
 20
-741.1346137652458
 42
0.0
 10
806.7435826314554
 20
-741.1346137652465
 42
0.3306820039868417
 10
806.2649418415575
 20
-741.4900350868536
 42
-0.3114293452558363
 10
805.3774167355057
 20
-742.1984417803275
 42
0.0
 10
802.4651217631301
 20
-742.4020892831849
 42
0.3939104756149427
 10
802.0000000000022
 20
-742.9008713083148
 42
0.0
 10
802.0000000000022
 20
-743.634613765246
 42
0.4142135623731003
 10
802.5000000000022
 20
-744.134613765246
 42
0.0
 10
817.0500000000022
 20
-744.134613765246
 42
0.0
 10
817.0500000000022
 20
-744.3346137652459
 42
0.4142135623731065
 10
817.3500000000022
 20
-744.634613765246
 42
0.0
 10
818.2500000000022
 20
-744.634613765246
 42
0.4142135623731065
 10
818.5500000000022
 20
-744.3346137652459
 42
0.0
 10
818.5500000000022
 20
-744.134613765246
 42
0.0
 10
841.7000000000022
 20
-744.134613765246
 42
-0.4142135623731065
 10
842.0000000000022
 20
-744.4346137652459
 42
0.0
 10
842.0000000000022
 20
-745.9338811958215
 42
-0.3939104756149436
 10
841.7209269421254
 20
-746.2331504108995
 42
0.0
 10
840.6651217631301
 20
-746.3069795011002
 42
0.3939104756149279
 10
840.2000000000022
 20
-746.8057615262301
 42
0.0
 10
840.2000000000021
 20
-747.234613765246
 42
0.414213562373095
 10
840.7000000000021
 20
-747.734613765246
 42
0.0
 10
842.0000000000022
 20
-747.734613765246
 42
-0.414213562373095
 10
843.0000000000022
 20
-748.734613765246
 42
0.0
 10
843.0000000000026
 20
-749.734613765246
 42
-0.414213562373095
 10
842.7000000000027
 20
-750.0346137652459
 42
0.0
 10
840.5000000000022
 20
-750.0346137652459
 42
-0.414213562373095
 10
840.2000000000022
 20
-749.7346137652459
 42
0.0
 10
840.2000000000022
 20
-749.3346137652472
 42
0.414213562373095
 10
839.9000000000021
 20
-749.0346137652472
 42
0.0
 10
839.3000000000022
 20
-749.0346137652472
 42
0.414213562373095
 10
839.0000000000022
 20
-749.3346137652472
 42
0.0
 10
839.0000000000022
 20
-749.7346137652459
 42
-0.4142135623731065
 10
838.7000000000022
 20
-750.0346137652459
 42
0.0
 10
836.3000000000022
 20
-750.0346137652459
 42
0.414213562373095
 10
836.0000000000022
 20
-750.3346137652459
 42
0.0
 10
836.0000000000022
 20
-751.3346137652459
 42
0.414213562373095
 10
836.3000000000022
 20
-751.634613765246
 42
0.0
 10
842.7000000000027
 20
-751.634613765246
 42
-0.414213562373095
 10
843.0000000000026
 20
-751.9346137652459
 42
0.0
 10
843.0000000000026
 20
-800.8346137652459
 42
0.414213562373095
 10
843.3000000000026
 20
-801.134613765246
 42
0.0
 10
844.7000000000018
 20
-801.134613765246
 42
0.414213562373095
 97
        0
 75
     0
 76
     1
 98
        0
  0
LWPOLYLINE
  5
A9
330
A5
100
AcDbEntity
  8
FEIN
 48
0.3333333432674408
100
AcDbPolyline
 90
       89
 70
     1
 43
0.0
 10
845.0000000000017
 20
-800.8346137652459
 10
845.0000000000017
 20
-751.9346137652459
 42
-0.4142135623730835
 10
845.3000000000017
 20
-751.634613765246
 10
851.7000000000022
 20
-751.634613765246
 42
0.414213562373095
 10
852.0000000000022
 20
-751.3346137652459
 10
852.0000000000022
 20
-750.3346137652459
 42
0.414213562373095
 10
851.7000000000022
 20
-750.0346137652459
 10
849.3000000000021
 20
-750.0346137652459
 42
-0.414213562373095
 10
849.0000000000022
 20
-749.734613765246
 10
849.0000000000022
 20
-749.3346137652472
 42
0.414213562373095
 10
848.7000000000022
 20
-749.0346137652472
 10
848.1000000000022
 20
-749.0346137652472
 42
0.414213562373095
 10
847.8000000000021
 20
-749.3346137652472
 10
847.8000000000021
 20
-749.734613765246
 42
-0.414213562373095
 10
847.5000000000022
 20
-750.0346137652459
 10
845.3000000000017
 20
-750.0346137652459
 42
-0.414213562373095
 10
845.0000000000017
 20
-749.734613765246
 10
845.0000000000022
 20
-748.7346137652459
 42
-0.414213562373095
 10
846.0000000000022
 20
-747.7346137652459
 10
847.3000000000021
 20
-747.7346137652459
 42
0.414213562373095
 10
847.8000000000021
 20
-747.2346137652459
 10
847.8000000000021
 20
-746.634613765246
 42
-0.414213562373095
 10
848.3000000000021
 20
-746.134613765246
 10
866.7000000000021
 20
-746.1346137652458
 10
867.000000000002
 20
-745.8346137652459
 10
867.3000000000021
 20
-746.134613765246
 10
885.5000000000022
 20
-746.134613765246
 42
0.414213562373095
 10
886.0000000000022
 20
-745.634613765246
 10
886.0000000000022
 20
-744.634613765246
 42
0.414213562373095
 10
885.5000000000022
 20
-744.134613765246
 10
862.6000000000022
 20
-744.134613765246
 10
862.6000000000022
 20
-744.4346137652459
 42
-0.414213562373095
 10
862.3000000000021
 20
-744.7346137652459
 10
861.3000000000021
 20
-744.7346137652459
 42
-0.414213562373095
 10
861.0000000000022
 20
-744.4346137652459
 10
861.0000000000022
 20
-744.134613765246
 10
846.3000000000022
 20
-744.134613765246
 42
-0.414213562373095
 10
846.0000000000022
 20
-743.8346137652459
 10
846.0000000000022
 20
-742.634613765246
 42
-0.3939104756149434
 10
846.2790730578789
 20
-742.335344550168
 10
848.2209269421254
 20
-742.1995568987825
 42
0.3939104756149329
 10
848.5000000000022
 20
-741.9002876837045
 10
848.5000000000022
 20
-741.634613765246
 42
0.414213562373095
 10
848.0000000000022
 20
-741.134613765246
 10
823.3000000000021
 20
-741.1346137652458
 10
823.0000000000022
 20
-741.4346137652459
 10
822.7000000000021
 20
-741.1346137652458
 10
806.7435826314554
 20
-741.1346137652465
 42
0.3306820039868417
 10
806.2649418415575
 20
-741.4900350868536
 42
-0.3114293452558363
 10
805.3774167355057
 20
-742.1984417803275
 10
802.4651217631301
 20
-742.4020892831849
 42
0.3939104756149427
 10
802.0000000000022
 20
-742.9008713083148
 10
802.0000000000022
 20
-743.634613765246
 42
0.4142135623731003
 10
802.5000000000022
 20
-744.134613765246
 10
817.0500000000022
 20
-744.134613765246
 10
817.0500000000022
 20
-744.3346137652459
 42
0.4142135623731065
 10
817.3500000000022
 20
-744.634613765246
 10
818.2500000000022
 20
-744.634613765246
 42
0.4142135623731065
 10
818.5500000000022
 20
-744.3346137652459
 10
818.5500000000022
 20
-744.134613765246
 10
841.7000000000022
 20
-744.134613765246
 42
-0.4142135623731065
 10
842.0000000000022
 20
-744.4346137652459
 10
842.0000000000022
 20
-745.9338811958215
 42
-0.3939104756149436
 10
841.7209269421254
 20
-746.2331504108995
 10
840.6651217631301
 20
-746.3069795011002
 42
0.3939104756149279
 10
840.2000000000022
 20
-746.8057615262301
 10
840.2000000000021
 20
-747.234613765246
 42
0.414213562373095
 10
840.7000000000021
 20
-747.734613765246
 10
842.0000000000022
 20
-747.734613765246
 42
-0.414213562373095
 10
843.0000000000022
 20
-748.734613765246
 10
843.0000000000026
 20
-749.734613765246
 42
-0.414213562373095
 10
842.7000000000027
 20
-750.0346137652459
 10
840.5000000000022
 20
-750.0346137652459
 42
-0.414213562373095
 10
840.2000000000022
 20
-749.7346137652459
 10
840.2000000000022
 20
-749.3346137652472
 42
0.414213562373095
 10
839.9000000000021
 20
-749.0346137652472
 10
839.3000000000022
 20
-749.0346137652472
 42
0.414213562373095
 10
839.0000000000022
 20
-749.3346137652472
 10
839.0000000000022
 20
-749.7346137652459
 42
-0.4142135623731065
 10
838.7000000000022
 20
-750.0346137652459
 10
836.3000000000022
 20
-750.0346137652459
 42
0.414213562373095
 10
836.0000000000022
 20
-750.3346137652459
 10
836.0000000000022
 20
-751.3346137652459
 42
0.414213562373095
 10
836.3000000000022
 20
-751.634613765246
 10
842.7000000000027
 20
-751.634613765246
 42
-0.414213562373095
 10
843.0000000000026
 20
-751.9346137652459
 10
843.0000000000026
 20
-800.8346137652459
 42
0.414213562373095
 10
843.3000000000026
 20
-801.134613765246
 10
844.7000000000018
 20
-801.134613765246
 42
0.414213562373095
  0
HATCH
  5
AA
330
A5
100
AcDbEntity
  8
FEIN
 62
   254
420
 13421772
 48
0.5
100
AcDbHatch
 10
0.0
 20
0.0
 30
0.0
210
0.0
220
0.0
230
1.0
  2
SOLID
 70
     1
 71
     0
 91
        1
 92
       18
 72
     1
 73
     1
 93
       60
 10
885.9872265965339
 20
-744.434613765246
 42
0.0
 10
885.9872265965339
 20
-745.9348431652971
 42
-0.3939104756149457
 10
885.7081535386571
 20
-746.2341123803751
 42
0.0
 10
884.4380183016133
 20
-746.3229288882386
 42
0.1473837716506253
 10
883.2961388857102
 20
-747.156312314189
 42
0.4187904109049907
 10
883.4031664265186
 20
-747.5702605889078
 42
0.0
 10
883.9311831038692
 20
-747.8758062413278
 42
0.3589714747272201
 10
884.3076124135681
 20
-747.8132400466319
 42
-0.0141413640309499
 10
884.3555444062112
 20
-747.7612787193417
 42
0.1730356836663313
 10
884.4397139985174
 20
-747.5780830834162
 42
-0.2611842625529236
 10
884.6051319594203
 20
-747.3357530301132
 42
-0.2350226135546912
 10
885.8969104964106
 20
-747.3367692058307
 42
-0.2611842625528785
 10
886.0619469956512
 20
-747.5793592106569
 42
0.1730356836662915
 10
886.1458282628009
 20
-747.7626870435479
 42
-0.0133900538511248
 10
886.1912111452161
 20
-747.8118919788748
 42
0.1730356836675285
 10
886.3671734857211
 20
-747.9102912472446
 42
-0.2611842625546094
 10
886.5956569299922
 20
-748.094362625297
 42
-0.1941495908692867
 10
886.5936544594166
 20
-749.1795241861723
 42
-0.2611842625545828
 10
886.3644932322467
 20
-749.3627510632567
 42
0.1730356836675638
 10
886.1881689350304
 20
-749.460500249969
 42
-0.0120132907910476
 10
886.1474095164856
 20
-749.5046092911647
 42
0.1730356836663207
 10
886.0638612239865
 20
-749.6880891105227
 42
-0.2611842625529862
 10
885.8992654251473
 20
-749.9309783435644
 42
-0.2494948871031386
 10
884.5374101740832
 20
-749.8972826347938
 42
-0.1938950085994804
 10
884.4393758349155
 20
-749.6956036277894
 42
0.1776403097576467
 10
884.3549181017322
 20
-749.5070034284688
 42
-0.0140263259722257
 10
884.3074010060166
 20
-749.455441461824
 42
0.358487266049958
 10
883.9314336824625
 20
-749.3925210068577
 42
0.0
 10
883.4036791504759
 20
-749.6965262825624
 42
0.2682136055308738
 10
883.2534227154734
 20
-749.956481787874
 42
0.0
 10
883.2534227154734
 20
-750.0344620853857
 42
0.0
 10
880.3000000000022
 20
-750.0344620853857
 42
0.4142135623730778
 10
880.0000000000023
 20
-750.3344620853857
 42
0.0
 10
880.0000000000023
 20
-751.3344620853857
 42
0.414213562373095
 10
880.3000000000022
 20
-751.6344620853856
 42
0.0
 10
886.7000000000022
 20
-751.6344620853856
 42
-0.4142135623731037
 10
887.0000000000023
 20
-751.9344620853857
 42
0.0
 10
887.0000000000023
 20
-800.8346137652461
 42
0.414213562373095
 10
887.3000000000022
 20
-801.1346137652461
 42
0.0
 10
888.7000000000022
 20
-801.1346137652461
 42
0.4142135623731125
 10
889.0000000000023
 20
-800.8346137652461
 42
0.0
 10
889.0000000000023
 20
-741.6344620853856
 42
0.414213562373095
 10
888.5000000000023
 20
-741.1344620853856
 42
0.0
 10
867.3000000000022
 20
-741.1344620853856
 42
0.0
 10
867.0000000000023
 20
-741.4344620853857
 42
0.0
 10
866.7000000000023
 20
-741.1344620853856
 42
0.0
 10
850.7094843660087
 20
-741.1344620853856
 42
0.3311822983355778
 10
850.2305835856357
 20
-741.4907469415832
 42
-0.3119240601426924
 10
849.3425384986339
 20
-742.2008807042383
 42
0.0
 10
846.4651217631301
 20
-742.4020892831851
 42
0.3939104756149434
 10
846.0000000000023
 20
-742.900871308315
 42
0.0
 10
846.0000000000023
 20
-743.6346137652461
 42
0.414213562373095
 10
846.5000000000023
 20
-744.1346137652461
 42
0.0
 10
861.0500000000022
 20
-744.1346137652461
 42
0.0
 10
861.0500000000022
 20
-744.3346137652461
 42
0.4142135623731036
 10
861.3500000000022
 20
-744.6346137652461
 42
0.0
 10
862.2500000000023
 20
-744.6346137652461
 42
0.4142135623731039
 10
862.5500000000022
 20
-744.3346137652461
 42
0.0
 10
862.5500000000022
 20
-744.1346137652461
 42
0.0
 10
885.687226596534
 20
-744.1346137652461
 42
-0.4142135623730863
 97
        0
 75
     0
 76
     1
 98
        0
  0
LWPOLYLINE
  5
AB
330
A5
100
AcDbEntity
  8
FEIN
 48
0.5
100
AcDbPolyline
 90
       60
 70
     1
 43
0.0
 10
885.9872265965339
 20
-744.434613765246
 10
885.9872265965339
 20
-745.9348431652971
 42
-0.3939104756149457
 10
885.7081535386571
 20
-746.2341123803751
 10
884.4380183016133
 20
-746.3229288882386
 42
0.1473837716506253
 10
883.2961388857102
 20
-747.156312314189
 42
0.4187904109049907
 10
883.4031664265186
 20
-747.5702605889078
 10
883.9311831038692
 20
-747.8758062413278
 42
0.3589714747272201
 10
884.3076124135681
 20
-747.8132400466319
 42
-0.0141413640309499
 10
884.3555444062112
 20
-747.7612787193417
 42
0.1730356836663313
 10
884.4397139985174
 20
-747.5780830834162
 42
-0.2611842625529236
 10
884.6051319594203
 20
-747.3357530301132
 42
-0.2350226135546912
 10
885.8969104964106
 20
-747.3367692058307
 42
-0.2611842625528785
 10
886.0619469956512
 20
-747.5793592106569
 42
0.1730356836662915
 10
886.1458282628009
 20
-747.7626870435479
 42
-0.0133900538511248
 10
886.1912111452161
 20
-747.8118919788748
 42
0.1730356836675285
 10
886.3671734857211
 20
-747.9102912472446
 42
-0.2611842625546094
 10
886.5956569299922
 20
-748.094362625297
 42
-0.1941495908692867
 10
886.5936544594166
 20
-749.1795241861723
 42
-0.2611842625545828
 10
886.3644932322467
 20
-749.3627510632567
 42
0.1730356836675638
 10
886.1881689350304
 20
-749.460500249969
 42
-0.0120132907910476
 10
886.1474095164856
 20
-749.5046092911647
 42
0.1730356836663207
 10
886.0638612239865
 20
-749.6880891105227
 42
-0.2611842625529862
 10
885.8992654251473
 20
-749.9309783435644
 42
-0.2494948871031386
 10
884.5374101740832
 20
-749.8972826347938
 42
-0.1938950085994804
 10
884.4393758349155
 20
-749.6956036277894
 42
0.1776403097576467
 10
884.3549181017322
 20
-749.5070034284688
 42
-0.0140263259722257
 10
884.3074010060166
 20
-749.455441461824
 42
0.358487266049958
 10
883.9314336824625
 20
-749.3925210068577
 10
883.4036791504759
 20
-749.6965262825624
 42
0.2682136055308738
 10
883.2534227154734
 20
-749.956481787874
 10
883.2534227154734
 20
-750.0344620853857
 10
880.3000000000022
 20
-750.0344620853857
 42
0.4142135623730778
 10
880.0000000000023
 20
-750.3344620853857
 10
880.0000000000023
 20
-751.3344620853857
 42
0.414213562373095
 10
880.3000000000022
 20
-751.6344620853856
 10
886.7000000000022
 20
-751.6344620853856
 42
-0.4142135623731037
 10
887.0000000000023
 20
-751.9344620853857
 10
887.0000000000023
 20
-800.8346137652461
 42
0.414213562373095
 10
887.3000000000022
 20
-801.1346137652461
 10
888.7000000000022
 20
-801.1346137652461
 42
0.4142135623731125
 10
889.0000000000023
 20
-800.8346137652461
 10
889.0000000000023
 20
-741.6344620853856
 42
0.414213562373095
 10
888.5000000000023
 20
-741.1344620853856
 10
867.3000000000022
 20
-741.1344620853856
 10
867.0000000000023
 20
-741.4344620853857
 10
866.7000000000023
 20
-741.1344620853856
 10
850.7094843660087
 20
-741.1344620853856
 42
0.3311822983355778
 10
850.2305835856357
 20
-741.4907469415832
 42
-0.3119240601426924
 10
849.3425384986339
 20
-742.2008807042383
 10
846.4651217631301
 20
-742.4020892831851
 42
0.3939104756149434
 10
846.0000000000023
 20
-742.900871308315
 10
846.0000000000023
 20
-743.6346137652461
 42
0.414213562373095
 10
846.5000000000023
 20
-744.1346137652461
 10
861.0500000000022
 20
-744.1346137652461
 10
861.0500000000022
 20
-744.3346137652461
 42
0.4142135623731036
 10
861.3500000000022
 20
-744.6346137652461
 10
862.2500000000023
 20
-744.6346137652461
 42
0.4142135623731039
 10
862.5500000000022
 20
-744.3346137652461
 10
862.5500000000022
 20
-744.1346137652461
 10
885.687226596534
 20
-744.1346137652461
 42
-0.4142135623730863
  0
ENDBLK
  5
AD
330
A5
100
AcDbEntity
  8
0
100
AcDbBlockEnd
  0
ENDSEC
  0
SECTION
  2
ENTITIES
  0
DIMENSION
  5
79
330
1F
100
AcDbEntity
  8
Maße
100
AcDbDimension
280
     0
  2
*D1
 10
408.4399749149654
 20
214.0
 30
0.0
 11
408.4399749149654
 21
244.0
 31
0.0
 70
   161
 71
     5
 42
60.0
 73
     0
 74
     0
 75
     0
  3
Standard
100
AcDbAlignedDimension
 13
401.4399749149654
 23
274.0
 33
0.0
 14
401.4399749149654
 24
214.0
 34
0.0
1001
ACAD
1000
DSTYLE
1002
{
1070
   279
1070
     2
1070
   289
1070
     0
1002
}
  0
DIMENSION
  5
88
330
1F
100
AcDbEntity
  8
Maße
100
AcDbDimension
280
     0
  2
*D2
 10
311.4399749147992
 20
207.0
 30
0.0
 11
307.4399749147992
 21
207.0
 31
0.0
 70
   161
 71
     5
 42
7.999999999999886
 73
     0
 74
     0
 75
     0
  3
Standard
100
AcDbAlignedDimension
 13
303.4399749147993
 23
214.0
 33
0.0
 14
311.4399749147992
 24
214.0
 34
0.0
1001
ACAD
1000
DSTYLE
1002
{
1070
   279
1070
     2
1070
   289
1070
     0
1002
}
  0
DIMENSION
  5
96
330
1F
100
AcDbEntity
  8
Maße
100
AcDbDimension
280
     0
  2
*D3
 10
311.4399749147992
 20
207.0
 30
0.0
 11
356.4399749148823
 21
207.0
 31
0.0
 70
   161
 71
     5
 42
90.00000000016621
 73
     0
 74
     0
 75
     0
  3
Standard
100
AcDbAlignedDimension
 13
401.4399749149654
 23
214.0
 33
0.0
 14
311.4399749147992
 24
214.0
 34
0.0
1001
ACAD
1000
DSTYLE
1002
{
1070
   279
1070
     2
1070
   289
1070
     0
1002
}
  0
INSERT
  5
B1
330
1F
100
AcDbEntity
  8
FEIN
100
AcDbBlockReference
  2
*U4
 10
-487.5600250852024
 20
1015.134613765245
 30
0.0
  0
MTEXT
  5
B2
330
1F
100
AcDbEntity
  8
Schrift
 62
    16
420
  8323072
100
AcDbMText
 10
167.0
 20
273.9999999999999
 30
0.0
 40
6.0
 41
366.1461716119359
 46
0.0
 71
     1
 72
     1
  1
Führungsschiene 2-läufig\Pmax. 12 mm Sockelleiste
 73
     1
 44
1.0
  0
ENDSEC
  0
SECTION
  2
OBJECTS
  0
DICTIONARY
  5
C
330
0
100
AcDbDictionary
281
     1
  3
ACAD_DETAILVIEWSTYLE
350
BA
  3
ACAD_GROUP
350
D
  3
ACAD_LAYOUT
350
1A
  3
ACAD_MATERIAL
350
43
  3
ACAD_MLEADERSTYLE
350
6B
  3
ACAD_MLINESTYLE
350
17
  3
ACAD_PLOTSETTINGS
350
19
  3
ACAD_PLOTSTYLENAME
350
E
  3
ACAD_SCALELIST
350
47
  3
ACAD_SECTIONVIEWSTYLE
350
BB
  3
ACAD_TABLESTYLE
350
69
  3
ACAD_VISUALSTYLE
350
2A
  3
ACDB_RECOMPOSE_DATA
350
B7
  3
AcDbVariableDictionary
350
B3
  0
SUN
  5
6D
330
29
100
AcDbSun
 90
        1
290
     0
 63
     7
421
 16777215
 40
1.0
291
     1
 91
  2455826
 92
 54000000
292
     0
 70
     2
 71
   256
280
     1
  0
DICTIONARY
  5
BA
102
{ACAD_REACTORS
330
C
102
}
330
C
100
AcDbDictionary
281
     1
  0
DICTIONARY
  5
D
102
{ACAD_REACTORS
330
C
102
}
330
C
100
AcDbDictionary
281
     1
  0
DICTIONARY
  5
1A
102
{ACAD_REACTORS
330
C
102
}
330
C
100
AcDbDictionary
281
     1
  3
Layout1
350
1E
  3
Layout2
350
26
  3
Model
350
22
  0
DICTIONARY
  5
43
102
{ACAD_REACTORS
330
C
102
}
330
C
100
AcDbDictionary
281
     1
  3
ByBlock
350
45
  3
ByLayer
350
44
  3
Global
350
46
  0
DICTIONARY
  5
6B
102
{ACAD_REACTORS
330
C
102
}
330
C
100
AcDbDictionary
281
     1
  3
Standard
350
6C
  0
DICTIONARY
  5
17
102
{ACAD_REACTORS
330
C
102
}
330
C
100
AcDbDictionary
281
     1
  3
Standard
350
18
  0
DICTIONARY
  5
19
102
{ACAD_REACTORS
330
C
102
}
330
C
100
AcDbDictionary
281
     1
  0
ACDBDICTIONARYWDFLT
  5
E
102
{ACAD_REACTORS
330
C
102
}
330
C
100
AcDbDictionary
281
     1
  3
Normal
350
F
100
AcDbDictionaryWithDefault
340
F
  0
DICTIONARY
  5
47
102
{ACAD_REACTORS
330
C
102
}
330
C
100
AcDbDictionary
281
     1
  3
A0
350
48
  3
A1
350
49
  3
A2
350
4A
  3
A3
350
4B
  3
A4
350
4C
  3
A5
350
4D
  3
A6
350
4E
  3
A7
350
4F
  3
A8
350
50
  3
A9
350
51
  3
B0
350
52
  3
B1
350
53
  3
B2
350
54
  3
B3
350
55
  3
B4
350
56
  3
B5
350
57
  3
B6
350
58
  3
B7
350
59
  3
B8
350
5A
  3
B9
350
5B
  3
C0
350
5C
  3
C1
350
5D
  3
C2
350
5E
  3
C3
350
5F
  3
C4
350
60
  3
C5
350
61
  3
C6
350
62
  3
C7
350
63
  3
C8
350
64
  3
C9
350
65
  3
D0
350
66
  3
D1
350
67
  3
D2
350
68
  0
DICTIONARY
  5
BB
102
{ACAD_REACTORS
330
C
102
}
330
C
100
AcDbDictionary
281
     1
  0
DICTIONARY
  5
69
102
{ACAD_REACTORS
330
C
102
}
330
C
100
AcDbDictionary
281
     1
  3
Standard
350
6A
  0
DICTIONARY
  5
2A
102
{ACAD_REACTORS
330
C
102
}
330
C
100
AcDbDictionary
281
     1
  3
2dWireframe
350
2F
  3
Basic
350
32
  3
Brighten
350
36
  3
ColorChange
350
3A
  3
Conceptual
350
34
  3
Dim
350
35
  3
EdgeColorOff
350
3D
  3
Facepattern
350
39
  3
Flat
350
2B
  3
FlatWithEdges
350
2C
  3
Gouraud
350
2D
  3
GouraudWithEdges
350
2E
  3
Hidden
350
31
  3
JitterOff
350
3B
  3
Linepattern
350
38
  3
OverhangOff
350
3C
  3
Realistic
350
33
  3
Shaded
350
42
  3
Shaded with edges
350
41
  3
Shades of Gray
350
3E
  3
Sketchy
350
3F
  3
Thicken
350
37
  3
Wireframe
350
30
  3
X-Ray
350
40
  0
XRECORD
  5
B7
102
{ACAD_REACTORS
330
C
102
}
330
C
100
AcDbXrecord
280
     1
 90
        1
330
6A
  0
DICTIONARY
  5
B3
102
{ACAD_REACTORS
330
C
102
}
330
C
100
AcDbDictionary
281
     1
  3
CANNOSCALE
350
B4
  3
CENTEREXE
350
BC
  3
CENTERLTYPEFILE
350
BD
  3
CMLEADERSTYLE
350
B9
  3
CTABLESTYLE
350
B8
  0
LAYOUT
  5
1E
102
{ACAD_REACTORS
330
1A
102
}
330
1A
100
AcDbPlotSettings
  1

  2
none_device
  4

  6

 40
0.0
 41
0.0
 42
0.0
 43
0.0
 44
0.0
 45
0.0
 46
0.0
 47
0.0
 48
0.0
 49
0.0
140
0.0
141
0.0
142
1.0
143
1.0
 70
   688
 72
     1
 73
     0
 74
     5
  7

 75
    16
 76
     0
 77
     2
 78
   300
147
1.0
148
0.0
149
0.0
100
AcDbLayout
  1
Layout1
 70
     1
 71
     1
 10
0.0
 20
0.0
 11
420.0
 21
297.0
 12
0.0
 22
0.0
 32
0.0
 14
1.000000000000000E+20
 24
1.000000000000000E+20
 34
1.000000000000000E+20
 15
-1.000000000000000E+20
 25
-1.000000000000000E+20
 35
-1.000000000000000E+20
146
0.0
 13
0.0
 23
0.0
 33
0.0
 16
1.0
 26
0.0
 36
0.0
 17
0.0
 27
1.0
 37
0.0
 76
     0
330
1B
  0
LAYOUT
  5
26
102
{ACAD_REACTORS
330
1A
102
}
330
1A
100
AcDbPlotSettings
  1

  2
none_device
  4

  6

 40
0.0
 41
0.0
 42
0.0
 43
0.0
 44
0.0
 45
0.0
 46
0.0
 47
0.0
 48
0.0
 49
0.0
140
0.0
141
0.0
142
1.0
143
1.0
 70
   688
 72
     1
 73
     0
 74
     5
  7

 75
    16
 76
     0
 77
     2
 78
   300
147
1.0
148
0.0
149
0.0
100
AcDbLayout
  1
Layout2
 70
     1
 71
     2
 10
0.0
 20
0.0
 11
0.0
 21
0.0
 12
0.0
 22
0.0
 32
0.0
 14
0.0
 24
0.0
 34
0.0
 15
0.0
 25
0.0
 35
0.0
146
0.0
 13
0.0
 23
0.0
 33
0.0
 16
1.0
 26
0.0
 36
0.0
 17
0.0
 27
1.0
 37
0.0
 76
     0
330
23
  0
LAYOUT
  5
22
102
{ACAD_REACTORS
330
1A
102
}
330
1A
100
AcDbPlotSettings
  1

  2
none_device
  4
Letter_(8.50_x_11.00_Inches)
  6

 40
6.35
 41
6.35
 42
6.35000508
 43
6.35000508
 44
215.9
 45
279.4
 46
0.0
 47
0.0
 48
0.0
 49
0.0
140
0.0
141
0.0
142
1.0
143
1.0
 70
  1712
 72
     1
 73
     0
 74
     0
  7

 75
     0
 76
     0
 77
     2
 78
   300
147
1.0
148
0.0
149
0.0
100
AcDbLayout
  1
Model
 70
     1
 71
     0
 10
0.0
 20
0.0
 11
420.0
 21
297.0
 12
0.0
 22
0.0
 32
0.0
 14
1.000000000000000E+20
 24
1.000000000000000E+20
 34
1.000000000000000E+20
 15
-1.000000000000000E+20
 25
-1.000000000000000E+20
 35
-1.000000000000000E+20
146
0.0
 13
0.0
 23
0.0
 33
0.0
 16
1.0
 26
0.0
 36
0.0
 17
0.0
 27
1.0
 37
0.0
 76
     0
330
1F
331
29
  0
MATERIAL
  5
45
102
{ACAD_REACTORS
330
43
102
}
330
43
100
AcDbMaterial
  1
ByBlock
 72
     1
 94
      127
  0
MATERIAL
  5
44
102
{ACAD_REACTORS
330
43
102
}
330
43
100
AcDbMaterial
  1
ByLayer
 72
     1
 94
      127
  0
MATERIAL
  5
46
102
{ACAD_REACTORS
330
43
102
}
330
43
100
AcDbMaterial
  1
Global
 72
     1
 94
      127
  0
MLEADERSTYLE
  5
6C
102
{ACAD_REACTORS
330
6B
102
}
330
6B
100
AcDbMLeaderStyle
179
     2
170
     2
171
     1
172
     0
 90
        2
 40
0.0
 41
0.0
173
     1
 91
-1056964608
340
14
 92
       -2
290
     1
 42
2.0
291
     1
 43
8.0
  3
Standard
341
0
 44
4.0
300

342
11
174
     1
178
     6
175
     1
176
     0
 93
-1056964608
 45
4.0
292
     0
297
     0
 46
4.0
343
0
 94
-1056964608
 47
1.0
 49
1.0
140
1.0
293
     1
141
0.0
294
     1
177
     0
142
1.0
295
     0
296
     0
143
3.75
271
     0
272
     9
273
     9
298
     0
  0
MLINESTYLE
  5
18
102
{ACAD_REACTORS
330
17
102
}
330
17
100
AcDbMlineStyle
  2
Standard
 70
     0
  3

 62
   256
 51
90.0
 52
90.0
 71
     2
 49
0.5
 62
   256
  6
BYLAYER
 49
-0.5
 62
   256
  6
BYLAYER
  0
ACDBPLACEHOLDER
  5
F
102
{ACAD_REACTORS
330
E
102
}
330
E
  0
SCALE
  5
48
102
{ACAD_REACTORS
330
47
102
}
330
47
100
AcDbScale
 70
     0
300
1:1
140
1.0
141
1.0
290
     1
  0
SCALE
  5
49
102
{ACAD_REACTORS
330
47
102
}
330
47
100
AcDbScale
 70
     0
300
1:2
140
1.0
141
2.0
290
     0
  0
SCALE
  5
4A
102
{ACAD_REACTORS
330
47
102
}
330
47
100
AcDbScale
 70
     0
300
1:4
140
1.0
141
4.0
290
     0
  0
SCALE
  5
4B
102
{ACAD_REACTORS
330
47
102
}
330
47
100
AcDbScale
 70
     0
300
1:5
140
1.0
141
5.0
290
     0
  0
SCALE
  5
4C
102
{ACAD_REACTORS
330
47
102
}
330
47
100
AcDbScale
 70
     0
300
1:8
140
1.0
141
8.0
290
     0
  0
SCALE
  5
4D
102
{ACAD_REACTORS
330
47
102
}
330
47
100
AcDbScale
 70
     0
300
1:10
140
1.0
141
10.0
290
     0
  0
SCALE
  5
4E
102
{ACAD_REACTORS
330
47
102
}
330
47
100
AcDbScale
 70
     0
300
1:16
140
1.0
141
16.0
290
     0
  0
SCALE
  5
4F
102
{ACAD_REACTORS
330
47
102
}
330
47
100
AcDbScale
 70
     0
300
1:20
140
1.0
141
20.0
290
     0
  0
SCALE
  5
50
102
{ACAD_REACTORS
330
47
102
}
330
47
100
AcDbScale
 70
     0
300
1:30
140
1.0
141
30.0
290
     0
  0
SCALE
  5
51
102
{ACAD_REACTORS
330
47
102
}
330
47
100
AcDbScale
 70
     0
300
1:40
140
1.0
141
40.0
290
     0
  0
SCALE
  5
52
102
{ACAD_REACTORS
330
47
102
}
330
47
100
AcDbScale
 70
     0
300
1:50
140
1.0
141
50.0
290
     0
  0
SCALE
  5
53
102
{ACAD_REACTORS
330
47
102
}
330
47
100
AcDbScale
 70
     0
300
1:100
140
1.0
141
100.0
290
     0
  0
SCALE
  5
54
102
{ACAD_REACTORS
330
47
102
}
330
47
100
AcDbScale
 70
     0
300
2:1
140
2.0
141
1.0
290
     0
  0
SCALE
  5
55
102
{ACAD_REACTORS
330
47
102
}
330
47
100
AcDbScale
 70
     0
300
4:1
140
4.0
141
1.0
290
     0
  0
SCALE
  5
56
102
{ACAD_REACTORS
330
47
102
}
330
47
100
AcDbScale
 70
     0
300
8:1
140
8.0
141
1.0
290
     0
  0
SCALE
  5
57
102
{ACAD_REACTORS
330
47
102
}
330
47
100
AcDbScale
 70
     0
300
10:1
140
10.0
141
1.0
290
     0
  0
SCALE
  5
58
102
{ACAD_REACTORS
330
47
102
}
330
47
100
AcDbScale
 70
     0
300
100:1
140
100.0
141
1.0
290
     0
  0
SCALE
  5
59
102
{ACAD_REACTORS
330
47
102
}
330
47
100
AcDbScale
 70
     0
300
1/128" = 1'-0"
140
0.0078125
141
12.0
290
     0
  0
SCALE
  5
5A
102
{ACAD_REACTORS
330
47
102
}
330
47
100
AcDbScale
 70
     0
300
1/64" = 1'-0"
140
0.015625
141
12.0
290
     0
  0
SCALE
  5
5B
102
{ACAD_REACTORS
330
47
102
}
330
47
100
AcDbScale
 70
     0
300
1/32" = 1'-0"
140
0.03125
141
12.0
290
     0
  0
SCALE
  5
5C
102
{ACAD_REACTORS
330
47
102
}
330
47
100
AcDbScale
 70
     0
300
1/16" = 1'-0"
140
0.0625
141
12.0
290
     0
  0
SCALE
  5
5D
102
{ACAD_REACTORS
330
47
102
}
330
47
100
AcDbScale
 70
     0
300
3/32" = 1'-0"
140
0.09375
141
12.0
290
     0
  0
SCALE
  5
5E
102
{ACAD_REACTORS
330
47
102
}
330
47
100
AcDbScale
 70
     0
300
1/8" = 1'-0"
140
0.125
141
12.0
290
     0
  0
SCALE
  5
5F
102
{ACAD_REACTORS
330
47
102
}
330
47
100
AcDbScale
 70
     0
300
3/16" = 1'-0"
140
0.1875
141
12.0
290
     0
  0
SCALE
  5
60
102
{ACAD_REACTORS
330
47
102
}
330
47
100
AcDbScale
 70
     0
300
1/4" = 1'-0"
140
0.25
141
12.0
290
     0
  0
SCALE
  5
61
102
{ACAD_REACTORS
330
47
102
}
330
47
100
AcDbScale
 70
     0
300
3/8" = 1'-0"
140
0.375
141
12.0
290
     0
  0
SCALE
  5
62
102
{ACAD_REACTORS
330
47
102
}
330
47
100
AcDbScale
 70
     0
300
1/2" = 1'-0"
140
0.5
141
12.0
290
     0
  0
SCALE
  5
63
102
{ACAD_REACTORS
330
47
102
}
330
47
100
AcDbScale
 70
     0
300
3/4" = 1'-0"
140
0.75
141
12.0
290
     0
  0
SCALE
  5
64
102
{ACAD_REACTORS
330
47
102
}
330
47
100
AcDbScale
 70
     0
300
1" = 1'-0"
140
1.0
141
12.0
290
     0
  0
SCALE
  5
65
102
{ACAD_REACTORS
330
47
102
}
330
47
100
AcDbScale
 70
     0
300
1-1/2" = 1'-0"
140
1.5
141
12.0
290
     0
  0
SCALE
  5
66
102
{ACAD_REACTORS
330
47
102
}
330
47
100
AcDbScale
 70
     0
300
3" = 1'-0"
140
3.0
141
12.0
290
     0
  0
SCALE
  5
67
102
{ACAD_REACTORS
330
47
102
}
330
47
100
AcDbScale
 70
     0
300
6" = 1'-0"
140
6.0
141
12.0
290
     0
  0
SCALE
  5
68
102
{ACAD_REACTORS
330
47
102
}
330
47
100
AcDbScale
 70
     0
300
1'-0" = 1'-0"
140
12.0
141
12.0
290
     0
  0
TABLESTYLE
  5
6A
102
{ACAD_REACTORS
330
69
102
}
102
{ACAD_XDICTIONARY
360
B5
102
}
330
69
100
AcDbTableStyle
  3
Standard
 70
     0
 71
     0
 40
0.06
 41
0.06
280
     0
281
     0
  7
Standard
140
4.5
170
     2
 62
     0
 63
   257
283
     0
 90
        4
 91
        0
  1

274
    -2
284
     1
 64
     0
275
    -2
285
     1
 65
     0
276
    -2
286
     1
 66
     0
277
    -2
287
     1
 67
     0
278
    -2
288
     1
 68
     0
279
    -2
289
     1
 69
     0
  7
Standard
140
6.0
170
     5
 62
     0
 63
   257
283
     0
 90
        4
 91
        0
  1

274
    -2
284
     1
 64
     0
275
    -2
285
     1
 65
     0
276
    -2
286
     1
 66
     0
277
    -2
287
     1
 67
     0
278
    -2
288
     1
 68
     0
279
    -2
289
     1
 69
     0
  7
Standard
140
4.5
170
     5
 62
     0
 63
   257
283
     0
 90
        4
 91
        0
  1

274
    -2
284
     1
 64
     0
275
    -2
285
     1
 65
     0
276
    -2
286
     1
 66
     0
277
    -2
287
     1
 67
     0
278
    -2
288
     1
 68
     0
279
    -2
289
     1
 69
     0
  0
VISUALSTYLE
  5
2F
102
{ACAD_REACTORS
330
2A
102
}
330
2A
100
AcDbVisualStyle
  2
2dWireframe
 70
     4
177
     3
291
     0
 70
    58
 90
        0
176
     1
 90
        2
176
     1
 90
        0
176
     1
 90
        0
176
     1
 40
0.6
176
     1
 40
30.0
176
     1
 62
     7
420
 16777215
176
     1
 90
        1
176
     1
 90
        4
176
     1
 62
     7
176
     1
 62
   257
176
     1
 90
        1
176
     1
 90
        1
176
     1
 40
1.0
176
     1
 90
        0
176
     1
 62
   257
176
     1
 40
1.0
176
     1
 90
        1
176
     1
 90
        6
176
     1
 90
        2
176
     1
 62
     7
176
     1
 90
        5
176
     1
 90
        0
176
     1
 90
        0
176
     1
290
     0
176
     1
 90
        1
176
     1
 40
0.0
176
     1
 90
        0
176
     1
290
     1
176
     1
290
     1
176
     1
290
     0
176
     1
290
     0
176
     1
290
     0
176
     1
290
     0
176
     1
290
     0
176
     1
290
     0
176
     1
290
     0
176
     1
 90
       50
176
     1
 40
0.0
176
     1
 40
1.0
176
     1
 90
        0
176
     1
 62
    18
420
        0
176
     1
 90
       50
176
     1
 90
        3
176
     1
 62
     5
420
      255
176
     1
290
     0
176
     1
 90
       50
176
     1
 90
       50
176
     1
 90
       50
176
     1
290
     0
176
     1
 90
       50
176
     1
 62
   256
176
     0
 40
1.0
176
     0
 90
        2
176
     1
  1
strokes_ogs.tif
176
     1
290
     0
176
     1
 40
1.0
176
     1
 40
1.0
176
     1
  0
VISUALSTYLE
  5
32
102
{ACAD_REACTORS
330
2A
102
}
330
2A
100
AcDbVisualStyle
  2
Basic
 70
     7
177
     3
291
     1
 70
    58
 90
        1
176
     1
 90
        0
176
     1
 90
        1
176
     1
 90
        0
176
     1
 40
0.6
176
     1
 40
30.0
176
     1
 62
     7
420
 16777215
176
     1
 90
        0
176
     1
 90
        4
176
     1
 62
     7
176
     1
 62
   257
176
     1
 90
        1
176
     1
 90
        1
176
     1
 40
1.0
176
     1
 90
        8
176
     1
 62
     7
176
     1
 40
1.0
176
     1
 90
        1
176
     1
 90
        6
176
     1
 90
        2
176
     1
 62
     7
176
     1
 90
        5
176
     1
 90
        0
176
     1
 90
        0
176
     1
290
     0
176
     1
 90
        1
176
     1
 40
0.0
176
     1
 90
        0
176
     1
290
     0
176
     1
290
     1
176
     1
290
     1
176
     1
290
     0
176
     1
290
     0
176
     1
290
     0
176
     1
290
     0
176
     1
290
     0
176
     1
290
     0
176
     1
 90
       50
176
     1
 40
0.0
176
     1
 40
1.0
176
     1
 90
        0
176
     1
 62
    18
420
        0
176
     1
 90
       50
176
     1
 90
        3
176
     1
 62
     5
420
      255
176
     1
290
     0
176
     1
 90
       50
176
     1
 90
       50
176
     1
 90
       50
176
     1
290
     0
176
     1
 90
       50
176
     1
 62
   256
176
     0
 40
1.0
176
     0
 90
        2
176
     1
  1
strokes_ogs.tif
176
     1
290
     0
176
     1
 40
1.0
176
     1
 40
1.0
176
     1
  0
VISUALSTYLE
  5
36
102
{ACAD_REACTORS
330
2A
102
}
330
2A
100
AcDbVisualStyle
  2
Brighten
 70
    12
177
     3
291
     1
 70
    58
 90
        2
176
     1
 90
        2
176
     1
 90
        0
176
     1
 90
        0
176
     1
 40
0.6
176
     1
 40
30.0
176
     1
 62
     7
420
 16777215
176
     1
 90
        1
176
     1
 90
        4
176
     1
 62
     7
176
     1
 62
   257
176
     1
 90
        1
176
     1
 90
        1
176
     1
 40
1.0
176
     1
 90
        8
176
     1
 62
     7
176
     1
 40
1.0
176
     1
 90
        1
176
     1
 90
        6
176
     1
 90
        2
176
     1
 62
     7
176
     1
 90
        5
176
     1
 90
        0
176
     1
 90
        0
176
     1
290
     0
176
     1
 90
        1
176
     1
 40
50.0
176
     1
 90
        0
176
     1
290
     0
176
     1
290
     1
176
     1
290
     1
176
     1
290
     0
176
     1
290
     0
176
     1
290
     0
176
     1
290
     0
176
     1
290
     0
176
     1
290
     0
176
     1
 90
       50
176
     1
 40
0.0
176
     1
 40
1.0
176
     1
 90
        0
176
     1
 62
    18
420
        0
176
     1
 90
       50
176
     1
 90
        3
176
     1
 62
     5
420
      255
176
     1
290
     0
176
     1
 90
       50
176
     1
 90
       50
176
     1
 90
       50
176
     1
290
     0
176
     1
 90
       50
176
     1
 62
   256
176
     0
 40
1.0
176
     0
 90
        2
176
     1
  1
strokes_ogs.tif
176
     1
290
     0
176
     1
 40
1.0
176
     1
 40
1.0
176
     1
  0
VISUALSTYLE
  5
3A
102
{ACAD_REACTORS
330
2A
102
}
330
2A
100
AcDbVisualStyle
  2
ColorChange
 70
    16
177
     3
291
     1
 70
    58
 90
        2
176
     1
 90
        2
176
     1
 90
        3
176
     1
 90
        0
176
     1
 40
0.6
176
     1
 40
30.0
176
     1
 62
     8
420
  8421504
176
     1
 90
        1
176
     1
 90
        4
176
     1
 62
     7
176
     1
 62
   257
176
     1
 90
        1
176
     1
 90
        1
176
     1
 40
1.0
176
     1
 90
        8
176
     1
 62
     8
420
  8421504
176
     1
 40
1.0
176
     1
 90
        1
176
     1
 90
        6
176
     1
 90
        2
176
     1
 62
     7
176
     1
 90
        5
176
     1
 90
        0
176
     1
 90
        0
176
     1
290
     0
176
     1
 90
        1
176
     1
 40
0.0
176
     1
 90
        0
176
     1
290
     0
176
     1
290
     1
176
     1
290
     1
176
     1
290
     0
176
     1
290
     0
176
     1
290
     0
176
     1
290
     0
176
     1
290
     0
176
     1
290
     0
176
     1
 90
       50
176
     1
 40
0.0
176
     1
 40
1.0
176
     1
 90
        0
176
     1
 62
    18
420
        0
176
     1
 90
       50
176
     1
 90
        3
176
     1
 62
     5
420
      255
176
     1
290
     0
176
     1
 90
       50
176
     1
 90
       50
176
     1
 90
       50
176
     1
290
     0
176
     1
 90
       50
176
     1
 62
   256
176
     0
 40
1.0
176
     0
 90
        2
176
     1
  1
strokes_ogs.tif
176
     1
290
     0
176
     1
 40
1.0
176
     1
 40
1.0
176
     1
  0
VISUALSTYLE
  5
34
102
{ACAD_REACTORS
330
2A
102
}
330
2A
100
AcDbVisualStyle
  2
Conceptual
 70
     9
177
     3
291
     0
 70
    58
 90
        3
176
     1
 90
        2
176
     1
 90
        0
176
     1
 90
        0
176
     1
 40
0.6
176
     1
 40
30.0
176
     1
 62
     7
420
 16777215
176
     1
 90
        2
176
     1
 90
        2
176
     1
 62
     7
176
     1
 62
   257
176
     1
 90
        1
176
     1
 90
        1
176
     1
 40
179.0
176
     1
 90
        8
176
     1
 62
     7
176
     1
 40
1.0
176
     1
 90
        1
176
     1
 90
        6
176
     1
 90
        2
176
     1
 62
     7
176
     1
 90
        3
176
     1
 90
        0
176
     1
 90
        0
176
     1
290
     0
176
     1
 90
        1
176
     1
 40
0.0
176
     1
 90
        0
176
     1
290
     0
176
     1
290
     1
176
     1
290
     1
176
     1
290
     0
176
     1
290
     0
176
     1
290
     0
176
     1
290
     0
176
     1
290
     0
176
     1
290
     0
176
     1
 90
       50
176
     1
 40
0.0
176
     1
 40
1.0
176
     1
 90
        0
176
     1
 62
    18
420
        0
176
     1
 90
       50
176
     1
 90
        3
176
     1
 62
     5
420
      255
176
     1
290
     0
176
     1
 90
       50
176
     1
 90
       50
176
     1
 90
       50
176
     1
290
     0
176
     1
 90
       50
176
     1
 62
   256
176
     0
 40
1.0
176
     0
 90
        2
176
     1
  1
strokes_ogs.tif
176
     1
290
     0
176
     1
 40
1.0
176
     1
 40
1.0
176
     1
  0
VISUALSTYLE
  5
35
102
{ACAD_REACTORS
330
2A
102
}
330
2A
100
AcDbVisualStyle
  2
Dim
 70
    11
177
     3
291
     1
 70
    58
 90
        2
176
     1
 90
        2
176
     1
 90
        0
176
     1
 90
        0
176
     1
 40
0.6
176
     1
 40
30.0
176
     1
 62
     7
420
 16777215
176
     1
 90
        1
176
     1
 90
        4
176
     1
 62
     7
176
     1
 62
   257
176
     1
 90
        1
176
     1
 90
        1
176
     1
 40
1.0
176
     1
 90
        8
176
     1
 62
     7
176
     1
 40
1.0
176
     1
 90
        1
176
     1
 90
        6
176
     1
 90
        2
176
     1
 62
     7
176
     1
 90
        5
176
     1
 90
        0
176
     1
 90
        0
176
     1
290
     0
176
     1
 90
        1
176
     1
 40
-50.0
176
     1
 90
        0
176
     1
290
     0
176
     1
290
     1
176
     1
290
     1
176
     1
290
     0
176
     1
290
     0
176
     1
290
     0
176
     1
290
     0
176
     1
290
     0
176
     1
290
     0
176
     1
 90
       50
176
     1
 40
0.0
176
     1
 40
1.0
176
     1
 90
        0
176
     1
 62
    18
420
        0
176
     1
 90
       50
176
     1
 90
        3
176
     1
 62
     5
420
      255
176
     1
290
     0
176
     1
 90
       50
176
     1
 90
       50
176
     1
 90
       50
176
     1
290
     0
176
     1
 90
       50
176
     1
 62
   256
176
     0
 40
1.0
176
     0
 90
        2
176
     1
  1
strokes_ogs.tif
176
     1
290
     0
176
     1
 40
1.0
176
     1
 40
1.0
176
     1
  0
VISUALSTYLE
  5
3D
102
{ACAD_REACTORS
330
2A
102
}
330
2A
100
AcDbVisualStyle
  2
EdgeColorOff
 70
    22
177
     3
291
     1
 70
    58
 90
        2
176
     0
 90
        2
176
     0
 90
        0
176
     0
 90
        0
176
     0
 40
0.6
176
     0
 40
30.0
176
     0
 62
     7
420
 16777215
176
     0
 90
        1
176
     0
 90
        4
176
     0
 62
     7
176
     0
 62
   257
176
     0
 90
        1
176
     0
 90
        1
176
     0
 40
1.0
176
     0
 90
        8
176
     2
 62
     7
176
     0
 40
1.0
176
     0
 90
        1
176
     0
 90
        6
176
     0
 90
        2
176
     0
 62
     7
176
     0
 90
        5
176
     0
 90
        0
176
     0
 90
        0
176
     0
290
     0
176
     0
 90
        1
176
     0
 40
0.0
176
     0
 90
        0
176
     0
290
     0
176
     0
290
     1
176
     0
290
     1
176
     0
290
     0
176
     0
290
     0
176
     0
290
     0
176
     0
290
     0
176
     0
290
     0
176
     0
290
     0
176
     0
 90
       50
176
     0
 40
0.0
176
     0
 40
1.0
176
     0
 90
        0
176
     0
 62
    18
420
        0
176
     0
 90
       50
176
     0
 90
        3
176
     0
 62
     5
420
      255
176
     0
290
     0
176
     0
 90
       50
176
     0
 90
       50
176
     0
 90
       50
176
     0
290
     0
176
     0
 90
       50
176
     0
 62
   256
176
     0
 40
1.0
176
     0
 90
        2
176
     0
  1
strokes_ogs.tif
176
     0
290
     0
176
     0
 40
1.0
176
     0
 40
1.0
176
     0
  0
VISUALSTYLE
  5
39
102
{ACAD_REACTORS
330
2A
102
}
330
2A
100
AcDbVisualStyle
  2
Facepattern
 70
    15
177
     3
291
     1
 70
    58
 90
        2
176
     1
 90
        2
176
     1
 90
        0
176
     1
 90
        0
176
     1
 40
0.6
176
     1
 40
30.0
176
     1
 62
     7
420
 16777215
176
     1
 90
        1
176
     1
 90
        4
176
     1
 62
     7
176
     1
 62
   257
176
     1
 90
        1
176
     1
 90
        1
176
     1
 40
1.0
176
     1
 90
        8
176
     1
 62
     7
176
     1
 40
1.0
176
     1
 90
        1
176
     1
 90
        6
176
     1
 90
        2
176
     1
 62
     7
176
     1
 90
        5
176
     1
 90
        0
176
     1
 90
        0
176
     1
290
     0
176
     1
 90
        1
176
     1
 40
0.0
176
     1
 90
        0
176
     1
290
     0
176
     1
290
     1
176
     1
290
     1
176
     1
290
     0
176
     1
290
     0
176
     1
290
     0
176
     1
290
     0
176
     1
290
     0
176
     1
290
     0
176
     1
 90
       50
176
     1
 40
0.0
176
     1
 40
1.0
176
     1
 90
        0
176
     1
 62
    18
420
        0
176
     1
 90
       50
176
     1
 90
        3
176
     1
 62
     5
420
      255
176
     1
290
     0
176
     1
 90
       50
176
     1
 90
       50
176
     1
 90
       50
176
     1
290
     0
176
     1
 90
       50
176
     1
 62
   256
176
     0
 40
1.0
176
     0
 90
        2
176
     1
  1
strokes_ogs.tif
176
     1
290
     0
176
     1
 40
1.0
176
     1
 40
1.0
176
     1
  0
VISUALSTYLE
  5
2B
102
{ACAD_REACTORS
330
2A
102
}
330
2A
100
AcDbVisualStyle
  2
Flat
 70
     0
177
     3
291
     1
 70
    58
 90
        2
176
     1
 90
        1
176
     1
 90
        1
176
     1
 90
        2
176
     1
 40
0.6
176
     1
 40
30.0
176
     1
 62
     7
420
 16777215
176
     1
 90
        0
176
     1
 90
        0
176
     1
 62
     7
176
     1
 62
   257
176
     1
 90
        1
176
     1
 90
        1
176
     1
 40
1.0
176
     1
 90
        8
176
     1
 62
     7
176
     1
 40
1.0
176
     1
 90
        1
176
     1
 90
        6
176
     1
 90
        2
176
     1
 62
     7
176
     1
 90
        5
176
     1
 90
        0
176
     1
 90
        0
176
     1
290
     0
176
     1
 90
       13
176
     1
 40
0.0
176
     1
 90
        0
176
     1
290
     0
176
     1
290
     1
176
     1
290
     1
176
     1
290
     0
176
     1
290
     0
176
     1
290
     0
176
     1
290
     0
176
     1
290
     0
176
     1
290
     0
176
     1
 90
       50
176
     1
 40
0.0
176
     1
 40
1.0
176
     1
 90
        0
176
     1
 62
    18
420
        0
176
     1
 90
       50
176
     1
 90
        3
176
     1
 62
     5
420
      255
176
     1
290
     0
176
     1
 90
       50
176
     1
 90
       50
176
     1
 90
       50
176
     1
290
     0
176
     1
 90
       50
176
     1
 62
   256
176
     0
 40
1.0
176
     0
 90
        2
176
     1
  1
strokes_ogs.tif
176
     1
290
     0
176
     1
 40
1.0
176
     1
 40
1.0
176
     1
  0
VISUALSTYLE
  5
2C
102
{ACAD_REACTORS
330
2A
102
}
330
2A
100
AcDbVisualStyle
  2
FlatWithEdges
 70
     1
177
     3
291
     1
 70
    58
 90
        2
176
     1
 90
        1
176
     1
 90
        1
176
     1
 90
        2
176
     1
 40
0.6
176
     1
 40
30.0
176
     1
 62
     7
420
 16777215
176
     1
 90
        1
176
     1
 90
        0
176
     1
 62
     7
176
     1
 62
   257
176
     1
 90
        1
176
     1
 90
        1
176
     1
 40
1.0
176
     1
 90
        0
176
     1
 62
   257
176
     1
 40
1.0
176
     1
 90
        1
176
     1
 90
        6
176
     1
 90
        2
176
     1
 62
     7
176
     1
 90
        5
176
     1
 90
        0
176
     1
 90
        0
176
     1
290
     0
176
     1
 90
       13
176
     1
 40
0.0
176
     1
 90
        0
176
     1
290
     0
176
     1
290
     1
176
     1
290
     1
176
     1
290
     0
176
     1
290
     0
176
     1
290
     0
176
     1
290
     0
176
     1
290
     0
176
     1
290
     0
176
     1
 90
       50
176
     1
 40
0.0
176
     1
 40
1.0
176
     1
 90
        0
176
     1
 62
    18
420
        0
176
     1
 90
       50
176
     1
 90
        3
176
     1
 62
     5
420
      255
176
     1
290
     0
176
     1
 90
       50
176
     1
 90
       50
176
     1
 90
       50
176
     1
290
     0
176
     1
 90
       50
176
     1
 62
   256
176
     0
 40
1.0
176
     0
 90
        2
176
     1
  1
strokes_ogs.tif
176
     1
290
     0
176
     1
 40
1.0
176
     1
 40
1.0
176
     1
  0
VISUALSTYLE
  5
2D
102
{ACAD_REACTORS
330
2A
102
}
330
2A
100
AcDbVisualStyle
  2
Gouraud
 70
     2
177
     3
291
     1
 70
    58
 90
        2
176
     1
 90
        2
176
     1
 90
        1
176
     1
 90
        2
176
     1
 40
0.6
176
     1
 40
30.0
176
     1
 62
     7
420
 16777215
176
     1
 90
        0
176
     1
 90
        0
176
     1
 62
     7
176
     1
 62
   257
176
     1
 90
        1
176
     1
 90
        1
176
     1
 40
1.0
176
     1
 90
        0
176
     1
 62
     7
176
     1
 40
1.0
176
     1
 90
        1
176
     1
 90
        6
176
     1
 90
        2
176
     1
 62
     7
176
     1
 90
        5
176
     1
 90
        0
176
     1
 90
        0
176
     1
290
     0
176
     1
 90
       13
176
     1
 40
0.0
176
     1
 90
        0
176
     1
290
     0
176
     1
290
     1
176
     1
290
     1
176
     1
290
     0
176
     1
290
     0
176
     1
290
     0
176
     1
290
     0
176
     1
290
     0
176
     1
290
     0
176
     1
 90
       50
176
     1
 40
0.0
176
     1
 40
1.0
176
     1
 90
        0
176
     1
 62
    18
420
        0
176
     1
 90
       50
176
     1
 90
        3
176
     1
 62
     5
420
      255
176
     1
290
     0
176
     1
 90
       50
176
     1
 90
       50
176
     1
 90
       50
176
     1
290
     0
176
     1
 90
       50
176
     1
 62
   256
176
     0
 40
1.0
176
     0
 90
        2
176
     1
  1
strokes_ogs.tif
176
     1
290
     0
176
     1
 40
1.0
176
     1
 40
1.0
176
     1
  0
VISUALSTYLE
  5
2E
102
{ACAD_REACTORS
330
2A
102
}
330
2A
100
AcDbVisualStyle
  2
GouraudWithEdges
 70
     3
177
     3
291
     1
 70
    58
 90
        2
176
     1
 90
        2
176
     1
 90
        1
176
     1
 90
        2
176
     1
 40
0.6
176
     1
 40
30.0
176
     1
 62
     7
420
 16777215
176
     1
 90
        1
176
     1
 90
        0
176
     1
 62
     7
176
     1
 62
   257
176
     1
 90
        1
176
     1
 90
        1
176
     1
 40
1.0
176
     1
 90
        0
176
     1
 62
   257
176
     1
 40
1.0
176
     1
 90
        1
176
     1
 90
        6
176
     1
 90
        2
176
     1
 62
     7
176
     1
 90
        5
176
     1
 90
        0
176
     1
 90
        0
176
     1
290
     0
176
     1
 90
       13
176
     1
 40
0.0
176
     1
 90
        0
176
     1
290
     0
176
     1
290
     1
176
     1
290
     1
176
     1
290
     0
176
     1
290
     0
176
     1
290
     0
176
     1
290
     0
176
     1
290
     0
176
     1
290
     0
176
     1
 90
       50
176
     1
 40
0.0
176
     1
 40
1.0
176
     1
 90
        0
176
     1
 62
    18
420
        0
176
     1
 90
       50
176
     1
 90
        3
176
     1
 62
     5
420
      255
176
     1
290
     0
176
     1
 90
       50
176
     1
 90
       50
176
     1
 90
       50
176
     1
290
     0
176
     1
 90
       50
176
     1
 62
   256
176
     0
 40
1.0
176
     0
 90
        2
176
     1
  1
strokes_ogs.tif
176
     1
290
     0
176
     1
 40
1.0
176
     1
 40
1.0
176
     1
  0
VISUALSTYLE
  5
31
102
{ACAD_REACTORS
330
2A
102
}
330
2A
100
AcDbVisualStyle
  2
Hidden
 70
     6
177
     3
291
     0
 70
    58
 90
        1
176
     1
 90
        2
176
     1
 90
        2
176
     1
 90
        0
176
     1
 40
0.6
176
     1
 40
30.0
176
     1
 62
     7
420
 16777215
176
     1
 90
        2
176
     1
 90
        2
176
     1
 62
     7
176
     1
 62
   257
176
     1
 90
        2
176
     1
 90
        1
176
     1
 40
40.0
176
     1
 90
        0
176
     1
 62
   257
176
     1
 40
1.0
176
     1
 90
        1
176
     1
 90
        6
176
     1
 90
        2
176
     1
 62
     7
176
     1
 90
        3
176
     1
 90
        0
176
     1
 90
        0
176
     1
290
     0
176
     1
 90
        1
176
     1
 40
0.0
176
     1
 90
        0
176
     1
290
     0
176
     1
290
     1
176
     1
290
     1
176
     1
290
     0
176
     1
290
     0
176
     1
290
     0
176
     1
290
     0
176
     1
290
     0
176
     1
290
     0
176
     1
 90
       50
176
     1
 40
0.0
176
     1
 40
1.0
176
     1
 90
        0
176
     1
 62
    18
420
        0
176
     1
 90
       50
176
     1
 90
        3
176
     1
 62
     5
420
      255
176
     1
290
     0
176
     1
 90
       50
176
     1
 90
       50
176
     1
 90
       50
176
     1
290
     0
176
     1
 90
       50
176
     1
 62
   256
176
     0
 40
1.0
176
     0
 90
        2
176
     1
  1
strokes_ogs.tif
176
     1
290
     0
176
     1
 40
1.0
176
     1
 40
1.0
176
     1
  0
VISUALSTYLE
  5
3B
102
{ACAD_REACTORS
330
2A
102
}
330
2A
100
AcDbVisualStyle
  2
JitterOff
 70
    20
177
     3
291
     1
 70
    58
 90
        2
176
     0
 90
        2
176
     0
 90
        0
176
     0
 90
        0
176
     0
 40
0.6
176
     0
 40
30.0
176
     0
 62
     7
420
 16777215
176
     0
 90
        1
176
     0
 90
        4
176
     0
 62
     7
176
     0
 62
   257
176
     0
 90
        1
176
     0
 90
        1
176
     0
 40
1.0
176
     0
 90
       10
176
     2
 62
     7
176
     0
 40
1.0
176
     0
 90
        1
176
     0
 90
        6
176
     0
 90
        2
176
     0
 62
     7
176
     0
 90
        5
176
     0
 90
        0
176
     0
 90
        0
176
     0
290
     0
176
     0
 90
        1
176
     0
 40
0.0
176
     0
 90
        0
176
     0
290
     0
176
     0
290
     1
176
     0
290
     1
176
     0
290
     0
176
     0
290
     0
176
     0
290
     0
176
     0
290
     0
176
     0
290
     0
176
     0
290
     0
176
     0
 90
       50
176
     0
 40
0.0
176
     0
 40
1.0
176
     0
 90
        0
176
     0
 62
    18
420
        0
176
     0
 90
       50
176
     0
 90
        3
176
     0
 62
     5
420
      255
176
     0
290
     0
176
     0
 90
       50
176
     0
 90
       50
176
     0
 90
       50
176
     0
290
     0
176
     0
 90
       50
176
     0
 62
   256
176
     0
 40
1.0
176
     0
 90
        2
176
     0
  1
strokes_ogs.tif
176
     0
290
     0
176
     0
 40
1.0
176
     0
 40
1.0
176
     0
  0
VISUALSTYLE
  5
38
102
{ACAD_REACTORS
330
2A
102
}
330
2A
100
AcDbVisualStyle
  2
Linepattern
 70
    14
177
     3
291
     1
 70
    58
 90
        2
176
     1
 90
        2
176
     1
 90
        0
176
     1
 90
        0
176
     1
 40
0.6
176
     1
 40
30.0
176
     1
 62
     7
420
 16777215
176
     1
 90
        1
176
     1
 90
        4
176
     1
 62
     7
176
     1
 62
   257
176
     1
 90
        7
176
     1
 90
        7
176
     1
 40
1.0
176
     1
 90
        8
176
     1
 62
     7
176
     1
 40
1.0
176
     1
 90
        1
176
     1
 90
        6
176
     1
 90
        2
176
     1
 62
     7
176
     1
 90
        5
176
     1
 90
        0
176
     1
 90
        0
176
     1
290
     0
176
     1
 90
        1
176
     1
 40
0.0
176
     1
 90
        0
176
     1
290
     0
176
     1
290
     1
176
     1
290
     1
176
     1
290
     0
176
     1
290
     0
176
     1
290
     0
176
     1
290
     0
176
     1
290
     0
176
     1
290
     0
176
     1
 90
       50
176
     1
 40
0.0
176
     1
 40
1.0
176
     1
 90
        0
176
     1
 62
    18
420
        0
176
     1
 90
       50
176
     1
 90
        3
176
     1
 62
     5
420
      255
176
     1
290
     0
176
     1
 90
       50
176
     1
 90
       50
176
     1
 90
       50
176
     1
290
     0
176
     1
 90
       50
176
     1
 62
   256
176
     0
 40
1.0
176
     0
 90
        2
176
     1
  1
strokes_ogs.tif
176
     1
290
     0
176
     1
 40
1.0
176
     1
 40
1.0
176
     1
  0
VISUALSTYLE
  5
3C
102
{ACAD_REACTORS
330
2A
102
}
330
2A
100
AcDbVisualStyle
  2
OverhangOff
 70
    21
177
     3
291
     1
 70
    58
 90
        2
176
     0
 90
        2
176
     0
 90
        0
176
     0
 90
        0
176
     0
 40
0.6
176
     0
 40
30.0
176
     0
 62
     7
420
 16777215
176
     0
 90
        1
176
     0
 90
        4
176
     0
 62
     7
176
     0
 62
   257
176
     0
 90
        1
176
     0
 90
        1
176
     0
 40
1.0
176
     0
 90
        9
176
     2
 62
     7
176
     0
 40
1.0
176
     0
 90
        1
176
     0
 90
        6
176
     0
 90
        2
176
     0
 62
     7
176
     0
 90
        5
176
     0
 90
        0
176
     0
 90
        0
176
     0
290
     0
176
     0
 90
        1
176
     0
 40
0.0
176
     0
 90
        0
176
     0
290
     0
176
     0
290
     1
176
     0
290
     1
176
     0
290
     0
176
     0
290
     0
176
     0
290
     0
176
     0
290
     0
176
     0
290
     0
176
     0
290
     0
176
     0
 90
       50
176
     0
 40
0.0
176
     0
 40
1.0
176
     0
 90
        0
176
     0
 62
    18
420
        0
176
     0
 90
       50
176
     0
 90
        3
176
     0
 62
     5
420
      255
176
     0
290
     0
176
     0
 90
       50
176
     0
 90
       50
176
     0
 90
       50
176
     0
290
     0
176
     0
 90
       50
176
     0
 62
   256
176
     0
 40
1.0
176
     0
 90
        2
176
     0
  1
strokes_ogs.tif
176
     0
290
     0
176
     0
 40
1.0
176
     0
 40
1.0
176
     0
  0
VISUALSTYLE
  5
33
102
{ACAD_REACTORS
330
2A
102
}
330
2A
100
AcDbVisualStyle
  2
Realistic
 70
     8
177
     3
291
     0
 70
    58
 90
        2
176
     1
 90
        3
176
     1
 90
        0
176
     1
 90
        2
176
     1
 40
0.6
176
     1
 40
30.0
176
     1
 62
     7
420
 16777215
176
     1
 90
        0
176
     1
 90
        0
176
     1
 62
     7
176
     1
 62
   257
176
     1
 90
        1
176
     1
 90
        1
176
     1
 40
1.0
176
     1
 90
        8
176
     1
 62
   257
176
     1
 40
1.0
176
     1
 90
        1
176
     1
 90
        6
176
     1
 90
        2
176
     1
 62
     7
176
     1
 90
        3
176
     1
 90
        0
176
     1
 90
        0
176
     1
290
     0
176
     1
 90
       13
176
     1
 40
0.0
176
     1
 90
        0
176
     1
290
     0
176
     1
290
     1
176
     1
290
     1
176
     1
290
     0
176
     1
290
     0
176
     1
290
     0
176
     1
290
     0
176
     1
290
     0
176
     1
290
     0
176
     1
 90
       50
176
     1
 40
0.0
176
     1
 40
1.0
176
     1
 90
        0
176
     1
 62
    18
420
        0
176
     1
 90
       50
176
     1
 90
        3
176
     1
 62
     5
420
      255
176
     1
290
     0
176
     1
 90
       50
176
     1
 90
       50
176
     1
 90
       50
176
     1
290
     0
176
     1
 90
       50
176
     1
 62
   256
176
     0
 40
1.0
176
     0
 90
        2
176
     1
  1
strokes_ogs.tif
176
     1
290
     0
176
     1
 40
1.0
176
     1
 40
1.0
176
     1
  0
VISUALSTYLE
  5
42
102
{ACAD_REACTORS
330
2A
102
}
330
2A
100
AcDbVisualStyle
  2
Shaded
 70
    27
177
     3
291
     0
 70
    58
 90
        2
176
     1
 90
        2
176
     1
 90
        1
176
     1
 90
        2
176
     1
 40
0.6
176
     1
 40
30.0
176
     1
 62
     7
420
 16777215
176
     1
 90
        0
176
     1
 90
        4
176
     1
 62
     7
176
     1
 62
   257
176
     1
 90
        1
176
     1
 90
        1
176
     1
 40
1.0
176
     1
 90
        8
176
     1
 62
   257
176
     1
 40
1.0
176
     1
 90
        1
176
     1
 90
        6
176
     1
 90
        2
176
     1
 62
     8
420
  7895160
176
     1
 90
        3
176
     1
 90
        0
176
     1
 90
        0
176
     1
290
     0
176
     1
 90
        5
176
     1
 40
0.0
176
     1
 90
        0
176
     1
290
     0
176
     1
290
     1
176
     1
290
     1
176
     1
290
     0
176
     1
290
     0
176
     1
290
     0
176
     1
290
     0
176
     1
290
     0
176
     1
290
     0
176
     1
 90
       50
176
     1
 40
0.0
176
     1
 40
1.0
176
     1
 90
        0
176
     1
 62
    18
420
        0
176
     1
 90
       50
176
     1
 90
        3
176
     1
 62
     5
420
      255
176
     1
290
     0
176
     1
 90
       50
176
     1
 90
       50
176
     1
 90
       50
176
     1
290
     0
176
     1
 90
       50
176
     1
 62
   256
176
     0
 40
1.0
176
     0
 90
        2
176
     1
  1
strokes_ogs.tif
176
     1
290
     0
176
     1
 40
1.0
176
     1
 40
1.0
176
     1
  0
VISUALSTYLE
  5
41
102
{ACAD_REACTORS
330
2A
102
}
330
2A
100
AcDbVisualStyle
  2
Shaded with edges
 70
    26
177
     3
291
     0
 70
    58
 90
        2
176
     1
 90
        2
176
     1
 90
        1
176
     1
 90
        2
176
     1
 40
0.6
176
     1
 40
30.0
176
     1
 62
     7
420
 16777215
176
     1
 90
        1
176
     1
 90
       10
176
     1
 62
     7
176
     1
 62
   257
176
     1
 90
        2
176
     1
 90
        1
176
     1
 40
1.0
176
     1
 90
        8
176
     1
 62
   257
176
     1
 40
1.0
176
     1
 90
        1
176
     1
 90
        6
176
     1
 90
        2
176
     1
 62
     7
176
     1
 90
        3
176
     1
 90
        0
176
     1
 90
        0
176
     1
290
     0
176
     1
 90
        5
176
     1
 40
0.0
176
     1
 90
        0
176
     1
290
     0
176
     1
290
     1
176
     1
290
     1
176
     1
290
     0
176
     1
290
     0
176
     1
290
     0
176
     1
290
     0
176
     1
290
     0
176
     1
290
     0
176
     1
 90
       50
176
     1
 40
0.0
176
     1
 40
1.0
176
     1
 90
        0
176
     1
 62
    18
420
        0
176
     1
 90
       50
176
     1
 90
        3
176
     1
 62
     5
420
      255
176
     1
290
     0
176
     1
 90
       50
176
     1
 90
       50
176
     1
 90
       50
176
     1
290
     0
176
     1
 90
       50
176
     1
 62
   256
176
     0
 40
1.0
176
     0
 90
        2
176
     1
  1
strokes_ogs.tif
176
     1
290
     0
176
     1
 40
1.0
176
     1
 40
1.0
176
     1
  0
VISUALSTYLE
  5
3E
102
{ACAD_REACTORS
330
2A
102
}
330
2A
100
AcDbVisualStyle
  2
Shades of Gray
 70
    23
177
     3
291
     0
 70
    58
 90
        2
176
     1
 90
        2
176
     1
 90
        3
176
     1
 90
        0
176
     1
 40
0.6
176
     1
 40
30.0
176
     1
 62
     7
420
 16777215
176
     1
 90
        2
176
     1
 90
        2
176
     1
 62
     7
176
     1
 62
     7
176
     1
 90
        1
176
     1
 90
        1
176
     1
 40
40.0
176
     1
 90
        8
176
     1
 62
     7
176
     1
 40
1.0
176
     1
 90
        1
176
     1
 90
        6
176
     1
 90
        2
176
     1
 62
     7
176
     1
 90
        3
176
     1
 90
        0
176
     1
 90
        0
176
     1
290
     0
176
     1
 90
        1
176
     1
 40
0.0
176
     1
 90
        0
176
     1
290
     0
176
     1
290
     1
176
     1
290
     1
176
     1
290
     0
176
     1
290
     0
176
     1
290
     0
176
     1
290
     0
176
     1
290
     0
176
     1
290
     0
176
     1
 90
       50
176
     1
 40
0.0
176
     1
 40
1.0
176
     1
 90
        0
176
     1
 62
    18
420
        0
176
     1
 90
       50
176
     1
 90
        3
176
     1
 62
     5
420
      255
176
     1
290
     0
176
     1
 90
       50
176
     1
 90
       50
176
     1
 90
       50
176
     1
290
     0
176
     1
 90
       50
176
     1
 62
   256
176
     0
 40
1.0
176
     0
 90
        2
176
     1
  1
strokes_ogs.tif
176
     1
290
     0
176
     1
 40
1.0
176
     1
 40
1.0
176
     1
  0
VISUALSTYLE
  5
3F
102
{ACAD_REACTORS
330
2A
102
}
330
2A
100
AcDbVisualStyle
  2
Sketchy
 70
    24
177
     3
291
     0
 70
    58
 90
        1
176
     1
 90
        2
176
     1
 90
        2
176
     1
 90
        0
176
     1
 40
0.6
176
     1
 40
30.0
176
     1
 62
     7
420
 16777215
176
     1
 90
        2
176
     1
 90
        2
176
     1
 62
     7
176
     1
 62
     7
176
     1
 90
        1
176
     1
 90
        1
176
     1
 40
40.0
176
     1
 90
       11
176
     1
 62
     7
176
     1
 40
1.0
176
     1
 90
        1
176
     1
 90
        6
176
     1
 90
        2
176
     1
 62
     7
176
     1
 90
        6
176
     1
 90
        0
176
     1
 90
        0
176
     1
290
     0
176
     1
 90
        1
176
     1
 40
0.0
176
     1
 90
        0
176
     1
290
     0
176
     1
290
     1
176
     1
290
     1
176
     1
290
     0
176
     1
290
     0
176
     1
290
     0
176
     1
290
     0
176
     1
290
     0
176
     1
290
     0
176
     1
 90
       50
176
     1
 40
0.0
176
     1
 40
1.0
176
     1
 90
        0
176
     1
 62
    18
420
        0
176
     1
 90
       50
176
     1
 90
        3
176
     1
 62
     5
420
      255
176
     1
290
     0
176
     1
 90
       50
176
     1
 90
       50
176
     1
 90
       50
176
     1
290
     0
176
     1
 90
       50
176
     1
 62
   256
176
     0
 40
1.0
176
     0
 90
        2
176
     1
  1
strokes_ogs.tif
176
     1
290
     0
176
     1
 40
1.0
176
     1
 40
1.0
176
     1
  0
VISUALSTYLE
  5
37
102
{ACAD_REACTORS
330
2A
102
}
330
2A
100
AcDbVisualStyle
  2
Thicken
 70
    13
177
     3
291
     1
 70
    58
 90
        2
176
     1
 90
        2
176
     1
 90
        0
176
     1
 90
        0
176
     1
 40
0.6
176
     1
 40
30.0
176
     1
 62
     7
420
 16777215
176
     1
 90
        1
176
     1
 90
        4
176
     1
 62
     7
176
     1
 62
   257
176
     1
 90
        1
176
     1
 90
        1
176
     1
 40
1.0
176
     1
 90
       12
176
     1
 62
     7
176
     1
 40
1.0
176
     1
 90
        1
176
     1
 90
        6
176
     1
 90
        2
176
     1
 62
     7
176
     1
 90
        5
176
     1
 90
        0
176
     1
 90
        0
176
     1
290
     0
176
     1
 90
        1
176
     1
 40
0.0
176
     1
 90
        0
176
     1
290
     0
176
     1
290
     1
176
     1
290
     1
176
     1
290
     0
176
     1
290
     0
176
     1
290
     0
176
     1
290
     0
176
     1
290
     0
176
     1
290
     0
176
     1
 90
       50
176
     1
 40
0.0
176
     1
 40
1.0
176
     1
 90
        0
176
     1
 62
    18
420
        0
176
     1
 90
       50
176
     1
 90
        3
176
     1
 62
     5
420
      255
176
     1
290
     0
176
     1
 90
       50
176
     1
 90
       50
176
     1
 90
       50
176
     1
290
     0
176
     1
 90
       50
176
     1
 62
   256
176
     0
 40
1.0
176
     0
 90
        2
176
     1
  1
strokes_ogs.tif
176
     1
290
     0
176
     1
 40
1.0
176
     1
 40
1.0
176
     1
  0
VISUALSTYLE
  5
30
102
{ACAD_REACTORS
330
2A
102
}
330
2A
100
AcDbVisualStyle
  2
Wireframe
 70
     5
177
     3
291
     0
 70
    58
 90
        0
176
     1
 90
        2
176
     1
 90
        0
176
     1
 90
        0
176
     1
 40
0.6
176
     1
 40
30.0
176
     1
 62
     7
420
 16777215
176
     1
 90
        1
176
     1
 90
        4
176
     1
 62
     7
176
     1
 62
   257
176
     1
 90
        1
176
     1
 90
        1
176
     1
 40
1.0
176
     1
 90
        0
176
     1
 62
   257
176
     1
 40
1.0
176
     1
 90
        1
176
     1
 90
        6
176
     1
 90
        2
176
     1
 62
     7
176
     1
 90
        3
176
     1
 90
        0
176
     1
 90
        0
176
     1
290
     0
176
     1
 90
        1
176
     1
 40
0.0
176
     1
 90
        0
176
     1
290
     0
176
     1
290
     1
176
     1
290
     1
176
     1
290
     0
176
     1
290
     0
176
     1
290
     0
176
     1
290
     0
176
     1
290
     0
176
     1
290
     0
176
     1
 90
       50
176
     1
 40
0.0
176
     1
 40
1.0
176
     1
 90
        0
176
     1
 62
    18
420
        0
176
     1
 90
       50
176
     1
 90
        3
176
     1
 62
     5
420
      255
176
     1
290
     0
176
     1
 90
       50
176
     1
 90
       50
176
     1
 90
       50
176
     1
290
     0
176
     1
 90
       50
176
     1
 62
   256
176
     0
 40
1.0
176
     0
 90
        2
176
     1
  1
strokes_ogs.tif
176
     1
290
     0
176
     1
 40
1.0
176
     1
 40
1.0
176
     1
  0
VISUALSTYLE
  5
40
102
{ACAD_REACTORS
330
2A
102
}
330
2A
100
AcDbVisualStyle
  2
X-Ray
 70
    25
177
     3
291
     0
 70
    58
 90
        2
176
     1
 90
        2
176
     1
 90
        1
176
     1
 90
        1
176
     1
 40
0.5
176
     1
 40
30.0
176
     1
 62
     7
420
 16777215
176
     1
 90
        1
176
     1
 90
        0
176
     1
 62
     7
176
     1
 62
   257
176
     1
 90
        1
176
     1
 90
        1
176
     1
 40
1.0
176
     1
 90
        8
176
     1
 62
     7
176
     1
 40
1.0
176
     1
 90
        1
176
     1
 90
        6
176
     1
 90
        2
176
     1
 62
     7
176
     1
 90
        3
176
     1
 90
        0
176
     1
 90
        0
176
     1
290
     0
176
     1
 90
       13
176
     1
 40
0.0
176
     1
 90
        0
176
     1
290
     0
176
     1
290
     1
176
     1
290
     1
176
     1
290
     0
176
     1
290
     0
176
     1
290
     0
176
     1
290
     0
176
     1
290
     0
176
     1
290
     0
176
     1
 90
       50
176
     1
 40
0.0
176
     1
 40
1.0
176
     1
 90
        0
176
     1
 62
    18
420
        0
176
     1
 90
       50
176
     1
 90
        3
176
     1
 62
     5
420
      255
176
     1
290
     0
176
     1
 90
       50
176
     1
 90
       50
176
     1
 90
       50
176
     1
290
     0
176
     1
 90
       50
176
     1
 62
   256
176
     0
 40
1.0
176
     0
 90
        2
176
     1
  1
strokes_ogs.tif
176
     1
290
     0
176
     1
 40
1.0
176
     1
 40
1.0
176
     1
  0
DICTIONARYVAR
  5
B4
102
{ACAD_REACTORS
330
B3
102
}
330
B3
100
DictionaryVariables
280
     0
  1
1:1
  0
DICTIONARYVAR
  5
BC
102
{ACAD_REACTORS
330
B3
102
}
330
B3
100
DictionaryVariables
280
     0
  1
3.500000
  0
DICTIONARYVAR
  5
BD
102
{ACAD_REACTORS
330
B3
102
}
330
B3
100
DictionaryVariables
280
     0
  1
acadiso.lin
  0
DICTIONARYVAR
  5
B9
102
{ACAD_REACTORS
330
B3
102
}
330
B3
100
DictionaryVariables
280
     0
  1
Standard
  0
DICTIONARYVAR
  5
B8
102
{ACAD_REACTORS
330
B3
102
}
330
B3
100
DictionaryVariables
280
     0
  1
Standard
  0
DICTIONARY
  5
B5
330
6A
100
AcDbDictionary
280
     1
281
     1
  3
ACAD_ROUNDTRIP_2008_TABLESTYLE_CELLSTYLEMAP
360
B6
  0
CELLSTYLEMAP
  5
B6
102
{ACAD_REACTORS
330
B5
102
}
330
B5
100
AcDbCellStyleMap
 90
        3
300
CELLSTYLE
  1
TABLEFORMAT_BEGIN
 90
        5
170
     1
 91
        0
 92
    32768
 62
   257
 93
        1
300
CONTENTFORMAT
  1
CONTENTFORMAT_BEGIN
 90
        0
 91
        0
 92
        4
 93
        0
300

 40
0.0
140
1.0
 94
        5
 62
     0
340
11
144
6.0
309
CONTENTFORMAT_END
171
     1
301
MARGIN
  1
CELLMARGIN_BEGIN
 40
1.5
 40
1.5
 40
1.5
 40
1.5
 40
1.5
 40
1.5
309
CELLMARGIN_END
 94
        6
 95
        1
302
GRIDFORMAT
  1
GRIDFORMAT_BEGIN
 90
        0
 91
        1
 62
     0
 92
       -2
340
14
 93
        0
 40
0.045
309
GRIDFORMAT_END
 95
        2
302
GRIDFORMAT
  1
GRIDFORMAT_BEGIN
 90
        0
 91
        1
 62
     0
 92
       -2
340
14
 93
        0
 40
0.045
309
GRIDFORMAT_END
 95
        4
302
GRIDFORMAT
  1
GRIDFORMAT_BEGIN
 90
        0
 91
        1
 62
     0
 92
       -2
340
14
 93
        0
 40
0.045
309
GRIDFORMAT_END
 95
        8
302
GRIDFORMAT
  1
GRIDFORMAT_BEGIN
 90
        0
 91
        1
 62
     0
 92
       -2
340
14
 93
        0
 40
0.045
309
GRIDFORMAT_END
 95
       16
302
GRIDFORMAT
  1
GRIDFORMAT_BEGIN
 90
        0
 91
        1
 62
     0
 92
       -2
340
14
 93
        0
 40
0.045
309
GRIDFORMAT_END
 95
       32
302
GRIDFORMAT
  1
GRIDFORMAT_BEGIN
 90
        0
 91
        1
 62
     0
 92
       -2
340
14
 93
        0
 40
0.045
309
GRIDFORMAT_END
309
TABLEFORMAT_END
  1
CELLSTYLE_BEGIN
 90
        1
 91
        1
300
_TITLE
309
CELLSTYLE_END
300
CELLSTYLE
  1
TABLEFORMAT_BEGIN
 90
        5
170
     1
 91
        0
 92
        0
 62
   257
 93
        1
300
CONTENTFORMAT
  1
CONTENTFORMAT_BEGIN
 90
        0
 91
        0
 92
        4
 93
        0
300

 40
0.0
140
1.0
 94
        5
 62
     0
340
11
144
4.5
309
CONTENTFORMAT_END
171
     1
301
MARGIN
  1
CELLMARGIN_BEGIN
 40
1.5
 40
1.5
 40
1.5
 40
1.5
 40
1.5
 40
1.5
309
CELLMARGIN_END
 94
        6
 95
        1
302
GRIDFORMAT
  1
GRIDFORMAT_BEGIN
 90
        0
 91
        1
 62
     0
 92
       -2
340
14
 93
        0
 40
0.045
309
GRIDFORMAT_END
 95
        2
302
GRIDFORMAT
  1
GRIDFORMAT_BEGIN
 90
        0
 91
        1
 62
     0
 92
       -2
340
14
 93
        0
 40
0.045
309
GRIDFORMAT_END
 95
        4
302
GRIDFORMAT
  1
GRIDFORMAT_BEGIN
 90
        0
 91
        1
 62
     0
 92
       -2
340
14
 93
        0
 40
0.045
309
GRIDFORMAT_END
 95
        8
302
GRIDFORMAT
  1
GRIDFORMAT_BEGIN
 90
        0
 91
        1
 62
     0
 92
       -2
340
14
 93
        0
 40
0.045
309
GRIDFORMAT_END
 95
       16
302
GRIDFORMAT
  1
GRIDFORMAT_BEGIN
 90
        0
 91
        1
 62
     0
 92
       -2
340
14
 93
        0
 40
0.045
309
GRIDFORMAT_END
 95
       32
302
GRIDFORMAT
  1
GRIDFORMAT_BEGIN
 90
        0
 91
        1
 62
     0
 92
       -2
340
14
 93
        0
 40
0.045
309
GRIDFORMAT_END
309
TABLEFORMAT_END
  1
CELLSTYLE_BEGIN
 90
        2
 91
        1
300
_HEADER
309
CELLSTYLE_END
300
CELLSTYLE
  1
TABLEFORMAT_BEGIN
 90
        5
170
     1
 91
        0
 92
        0
 62
   257
 93
        1
300
CONTENTFORMAT
  1
CONTENTFORMAT_BEGIN
 90
        0
 91
        0
 92
        4
 93
        0
300

 40
0.0
140
1.0
 94
        2
 62
     0
340
11
144
4.5
309
CONTENTFORMAT_END
171
     1
301
MARGIN
  1
CELLMARGIN_BEGIN
 40
1.5
 40
1.5
 40
1.5
 40
1.5
 40
1.5
 40
1.5
309
CELLMARGIN_END
 94
        6
 95
        1
302
GRIDFORMAT
  1
GRIDFORMAT_BEGIN
 90
        0
 91
        1
 62
     0
 92
       -2
340
14
 93
        0
 40
0.045
309
GRIDFORMAT_END
 95
        2
302
GRIDFORMAT
  1
GRIDFORMAT_BEGIN
 90
        0
 91
        1
 62
     0
 92
       -2
340
14
 93
        0
 40
0.045
309
GRIDFORMAT_END
 95
        4
302
GRIDFORMAT
  1
GRIDFORMAT_BEGIN
 90
        0
 91
        1
 62
     0
 92
       -2
340
14
 93
        0
 40
0.045
309
GRIDFORMAT_END
 95
        8
302
GRIDFORMAT
  1
GRIDFORMAT_BEGIN
 90
        0
 91
        1
 62
     0
 92
       -2
340
14
 93
        0
 40
0.045
309
GRIDFORMAT_END
 95
       16
302
GRIDFORMAT
  1
GRIDFORMAT_BEGIN
 90
        0
 91
        1
 62
     0
 92
       -2
340
14
 93
        0
 40
0.045
309
GRIDFORMAT_END
 95
       32
302
GRIDFORMAT
  1
GRIDFORMAT_BEGIN
 90
        0
 91
        1
 62
     0
 92
       -2
340
14
 93
        0
 40
0.045
309
GRIDFORMAT_END
309
TABLEFORMAT_END
  1
CELLSTYLE_BEGIN
 90
        3
 91
        2
300
_DATA
309
CELLSTYLE_END
  0
ENDSEC
  0
EOF
